(Jazz Pop, Vocal Jazz) Katie Melua - Secret Symphony 2012, FLAC (tracks+.cue)

 Статистика раздачи 
Размер: 221.02 МБ   |  Зарегистрирован: 19 апр 2012, 01:32   |   .torrent скачан: 0 раз
Сидеров: 0  [ 0 байт/сек ]     Личеров: 42  [ 0 байт/сек ]  
  
Аватара пользователя
Администратор
Администратор
Автор темы
Раздал: 24.47 ТБ
Скачал: 388.83 ГБ
Ратио: 145.334
Сообщения: 5357
Стаж: 6 лет 8 месяцев 19 дней
Откуда: Lithuania

Katie Melua - Secret Symphony


Оригинальное название: Katie Melua - Secret Symphony
Страна: UK
Производитель Диска - Лейбл: Dramatico Entertainment (rough trade)
Жанр: Jazz Pop, Vocal Jazz
Дата выхода: 2012
Формат аудио: FLAC
Битрэйт: lossless
Тип рипа: tracks+.cue
Продолжительность: 37:40
01. Gold In Them Hills 03:31
02. Better Than A Dream 03:10
03. The Bit That I Don t Get 03:13
04. Moonshine 02:42
05. Forgetting All My Troubles 03:23
06. All Over The World 02:56
07. Nobody Knows You When You re Down And Out 04:34
08. The Cry Of The Lone Wolf 03:59
09. Heartstings 02:54
10. The Walls Of The World 03:26
11. Secret Symphony 03:52

Код: Выделить всё
Exact Audio Copy V1.0 beta 3 from 29. August 2011

EAC extraction logfile from 2. March 2012, 15:08

Katie Melua / Secret Symphony

Used drive : TSSTcorpCDDVDW SH-S203D Adapter: 2 ID: 0

Read mode : Secure
Utilize accurate stream : Yes
Defeat audio cache : Yes
Make use of C2 pointers : No

Read offset correction : 6
Overread into Lead-In and Lead-Out : No
Fill up missing offset samples with silence : Yes
Delete leading and trailing silent blocks : No
Null samples used in CRC calculations : Yes
Used interface : Native Win32 interface for Win NT & 2000
Gap handling : Appended to previous track

Used output format : User Defined Encoder
Selected bitrate : 768 kBit/s
Quality : High
Add ID3 tag : No
Command line compressor : C:\Users\Felix\Desktop\ÄppZ\Audio Encoders\flac-1.2.1b-icl\flac.exe
Additional command line options : -8 -V -T "ARTIST=%artist%" -T "TITLE=%title%" -T "ALBUM=%albumtitle%" -T "DATE=%year%" -T "TRACKNUMBER=%tracknr%" -T "GENRE=%genre%" -T "PERFORMER=%albuminterpret%" -T "COMPOSER=%composer%" %haslyrics%--tag-from-file=LYRICS="%lyricsfile%"%haslyrics% -T "ALBUMARTIST=%albumartist%" -T "DISCNUMBER=%cdnumber%" -T "TOTALDISCS=%totalcds%" -T "TOTALTRACKS=%numtracks%" -T "COMMENT=%comment%" %source% -o %dest%

TOC of the extracted CD

Track | Start | Length | Start sector | End sector
---------------------------------------------------------
1 | 0:00.00 | 3:31.13 | 0 | 15837
2 | 3:31.13 | 3:10.05 | 15838 | 30092
3 | 6:41.18 | 3:12.57 | 30093 | 44549
4 | 9:54.00 | 2:41.67 | 44550 | 56691
5 | 12:35.67 | 3:22.67 | 56692 | 71908
6 | 15:58.59 | 2:55.72 | 71909 | 85105
7 | 18:54.56 | 4:33.36 | 85106 | 105616
8 | 23:28.17 | 3:59.22 | 105617 | 123563
9 | 27:27.39 | 2:53.41 | 123564 | 136579
10 | 30:21.05 | 3:25.36 | 136580 | 151990
11 | 33:46.41 | 3:51.52 | 151991 | 169367

Track 1

Filename D:\new rips\- CD\Katie Melua - Secret Symphony (2011)\01. Gold in Them Hills.wav

Pre-gap length 0:00:02.00

Peak level 98.8 %
Extraction speed 1.5 X
Track quality 99.9 %
Test CRC 73795A59
Copy CRC 73795A59
Track not present in AccurateRip database
Copy OK

Track 2

Filename D:\new rips\- CD\Katie Melua - Secret Symphony (2011)\02. Better Than a Dream.wav

Peak level 98.1 %
Extraction speed 1.8 X
Track quality 100.0 %
Test CRC 3E89C6E7
Copy CRC 3E89C6E7
Track not present in AccurateRip database
Copy OK

Track 3

Filename D:\new rips\- CD\Katie Melua - Secret Symphony (2011)\03. The Bit That I Don't Get.wav

Peak level 97.7 %
Extraction speed 2.0 X
Track quality 100.0 %
Test CRC 991B6E2B
Copy CRC 991B6E2B
Track not present in AccurateRip database
Copy OK

Track 4

Filename D:\new rips\- CD\Katie Melua - Secret Symphony (2011)\04. Moonshine.wav

Peak level 97.6 %
Extraction speed 2.0 X
Track quality 100.0 %
Test CRC 5231961F
Copy CRC 5231961F
Track not present in AccurateRip database
Copy OK

Track 5

Filename D:\new rips\- CD\Katie Melua - Secret Symphony (2011)\05. Forgetting All My Troubles.wav

Peak level 96.8 %
Extraction speed 2.2 X
Track quality 100.0 %
Test CRC F174C2B5
Copy CRC F174C2B5
Track not present in AccurateRip database
Copy OK

Track 6

Filename D:\new rips\- CD\Katie Melua - Secret Symphony (2011)\06. All Over the World.wav

Peak level 91.8 %
Extraction speed 1.8 X
Track quality 99.9 %
Test CRC 2DE1FCCF
Copy CRC 2DE1FCCF
Track not present in AccurateRip database
Copy OK

Track 7

Filename D:\new rips\- CD\Katie Melua - Secret Symphony (2011)\07. Nobody Knows You when You're Down and Out.wav

Peak level 98.5 %
Extraction speed 2.6 X
Track quality 100.0 %
Test CRC 4923D362
Copy CRC 4923D362
Track not present in AccurateRip database
Copy OK

Track 8

Filename D:\new rips\- CD\Katie Melua - Secret Symphony (2011)\08. The Cry of the Lone Wolf.wav

Peak level 96.3 %
Extraction speed 2.7 X
Track quality 100.0 %
Test CRC B68C843D
Copy CRC B68C843D
Track not present in AccurateRip database
Copy OK

Track 9

Filename D:\new rips\- CD\Katie Melua - Secret Symphony (2011)\09. Heartstrings.wav

Peak level 96.9 %
Extraction speed 2.6 X
Track quality 100.0 %
Test CRC F9617221
Copy CRC F9617221
Track not present in AccurateRip database
Copy OK

Track 10

Filename D:\new rips\- CD\Katie Melua - Secret Symphony (2011)\10. The Walls of the World.wav

Peak level 98.1 %
Extraction speed 2.2 X
Track quality 99.9 %
Test CRC 558A1185
Copy CRC 558A1185
Track not present in AccurateRip database
Copy OK

Track 11

Filename D:\new rips\- CD\Katie Melua - Secret Symphony (2011)\11. Secret Symphony.wav

Peak level 96.2 %
Extraction speed 3.0 X
Track quality 100.0 %
Test CRC 9E0B75B5
Copy CRC 9E0B75B5
Track not present in AccurateRip database
Copy OK

None of the tracks are present in the AccurateRip database

No errors occurred

End of status report

---- CUETools DB Plugin V2.1.3

[CTDB TOCID: KxMXxyhku960UjOp_AjGlSxfMkM-] found, Submit result: KxMXxyhku960UjOp_AjGlSxfMkM- has been confirmed
[9c3af5b8] (2/2) Accurately ripped

==== Log checksum BECA5E95C71845971718D0D88F40C216035997B517045CA2AA87010D1CA8C6E6 ====
   
Торрент: Зарегистрирован [19 апр 2012, 01:32] Jazz & Blues & Country Скачать торрент Магнет ссылка
Скачать торрент
[ Размер 18.64 КБ / Просмотров 173 ]
Статус:
Проверен
 
.torrent скачан: 0 раз
Размер: 221.02 МБ (231 757 240 байт)
   
 
 
Цитата
  • Похожие торренты
    Ответы
    Просмотры
    Последнее сообщение

Вернуться в Jazz & Blues & Country

Кто сейчас на конференции

Сейчас эту тему просматривают: нет зарегистрированных пользователей и гости: 1