[ATV3] Зверопой / Sing (Кристоф Лурделе / Christophe Lourdelet ) [2016, США, Великобритания, Япония, Мультфильм, драма, комедия, семейный, музыка, BDRip, HD (1080p)] DUB + Original + sub (rus, eng)

 Статистика раздачи 
Размер: 5.92 ГБ   |  Зарегистрирован: 25 мар 2018, 14:27   |   .torrent скачан: 0 раз
Сидеров: 19  [ 0 байт/сек ]     Личеров: 7  [ 0 байт/сек ]  
  
Аватара пользователя
 
Раздал: 229.86 ГБ
Скачал: 427.97 ГБ
Ратио: 0.617
Сообщения: 184957
Стаж: 7 лет 5 месяцев 4 дня

Зверопой / Sing

«Auditions begin 2016»
7.646 / 10 7.30 / 10
Год выпуска: 2016
Страна: США, Великобритания, Япония
Жанр: Мультфильм, драма, комедия, семейный, музыка
Продолжительность: 01:47:53
Перевод: Дублированный (Лицензия)
Оригинальная аудиодорожка: Есть
Субтитры: Русские, Английские
Режиссёр: Кристоф Лурделе
Сценарий: Гарт Дженнингс
Продюсер: Джанет Хили
Композитор: Джоби Тэлбот
Художник: Эрик Гуильон, Франсуа Морет
Монтаж: Грегори Перлер
В ролях: Мэттью МакКонахи, Риз Уизерспун, Сет МакФарлейн, Скарлетт Йоханссон, Джон Си Райли, Тэрон Эджертон, Тори Келли, Дженнифер Сондерс, Дженнифер Хадсон, Гарт Дженнингс, Питер Серафинович
Бюджет: $75 000 000
Сборы в США: $270 229 770
Сборы в мире: + $353 500 000 = $623 729 770
Сборы в России: $17 480 747
Мировая премьера: 11 сентября 2016
Премьера (РФ): 2 марта 2017, «UPI»
Описание: Каждое животное мечтает стать звездой. Слониха, баран, бык, и даже хрюшка, буквально все рвутся к славе. Кто знает, кому улыбнется капризная фортуна и чей портрет украсит завтра обложки глянцевых журналов. Все как у людей...
Качество исходника: Blu-Ray (BlueBird))
Качество: BDRip
Тип: HD (1080p)
Контейнер: M4V
Видео: H.264, 1920x1040, 1.85:1, 6 500 Kbps, 23.976 (24000/1001) fps
Аудио 1: Русский/Дублированный (Лицензия), AAC / 2.0 / 160 Kbps / 48.0 KHz
Аудио 2: Английский/Оригинальная дорожка , AAC / 2.0 / 160 Kbps / 48.0 KHz
Аудио 3: Русский/Дублированный (Лицензия), AC-3 / 5.1 / 384 Kbps / 48.0 KHz
Аудио 4: Английский/Оригинальная дорожка , AC-3 / 5.1 / 640 Kbps / 48.0 KHz
Субтитры 1: Русские полные
Субтитры 2: Английские полные


Код:
Код: Выделить всё
Sort Name: Sing
XID: Apple:vendor_id:2016-821008
contentID: 1180423333
Copyright: © 2016 Universal Studios. All Rights Reserved.
Screenwriters: Гарт Дженнингс
Producers: Джанет Хили, Бретт Хоффман, Игорь Хайт
Director: Christophe Lourdelet, Гарт Дженнингс
Cast: Мэттью МакКонахи, Риз Уизерспун, Сет МакФарлейн, Скарлетт Йоханссон, Джон Си Райли, Тэрон Эджертон, Тори Келли, Дженнифер Сондерс, Дженнифер Хадсон, Гарт Дженнингс, Даниил Эльдаров, Ирина Киреева, Илья Исаев, Татьяна Шитова, Сергей Смирнов
Studio: Universal Pictures
Rating: 3
Long Description: В мире, который населяют звери, коала по имени Бастер Мун изо всех сил пытается предотвратить закрытие своего театра. В итоге Бастер и его друг, баран Эдди, устраивают конкурс певцов, предлагая принять участие каждому жителю города.
Description: В мире, который населяют звери, коала по имени Бастер Мун изо всех сил пытается предотвратить закрытие своего театра. В итоге Бастер и его друг, баран Эдди, устраивают конкурс певцов, предлагая принять участие каждому жителю города.
Release Date: 2016-09-11T08:00:00Z
Genre: Kids & Family
Artist: Garth Jennings
Name: Sing

Код:
Код: Выделить всё
General
Complete name                            : /Users/imac/HandBrake/Sing (1080p HD).m4v
Format                                   : MPEG-4
Codec ID                                 : M4V  (M4V /M4A /mp42/isom)
File size                                : 5.92 GiB
Duration                                 : 1h 47mn
Overall bit rate mode                    : Variable
Overall bit rate                         : 7 852 Kbps
Movie name                               : Sing
Performer                                : Garth Jennings
Director                                 : Christophe Lourdelet / Гарт Дженнингс
Actor                                    : Мэттью МакКонахи / Риз Уизерспун / Сет МакФарлейн / Скарлетт Йоханссон / Джон Си Райли / Тэрон Эджертон / Тори Келли / Дженнифер Сондерс / Дженнифер Хадсон / Гарт Дженнингс / Даниил Эльдаров / Ирина Киреева / Илья Исаев / Татьяна Шитова / Сергей Смирнов
Screenplay by                            : Гарт Дженнингс
Producer                                 : Джанет Хили / Бретт Хоффман / Игорь Хайт
Production studio                        : Universal Pictures
Genre                                    : Kids & Family
ContentType                              : Short Film
Description                              : В мире, который населяют звери, коала по имени Бастер Мун изо всех сил пытается предотвратить закрытие своего театра. В итоге Бастер и его друг, баран Эдди, устраивают конкурс певцов, предлагая принять участие каждому жителю города.
Recorded date                            : UTC 2016-09-11 08:00:00
Encoded date                             : UTC 2017-04-17 10:10:51
Tagged date                              : UTC 2017-04-17 10:16:19
Copyright                                : © 2016 Universal Studios. All Rights Reserved.
Cover                                    : Yes
Rating                                   : None
Title/Sort                               : Sing
LongDescription                          : В мире, который населяют звери, коала по имени Бастер Мун изо всех сил пытается предотвратить закрытие своего театра. В итоге Бастер и его друг, баран Эдди, устраивают конкурс певцов, предлагая принять участие каждому жителю города.
AppleStoreCatalogID                      : 1180423333
Vendor                                   : Apple:vendor_id:2016-821008
ContentRating                            : mpaa|PG|200|
Video #1
ID                                       : 1
Format                                   : AVC
Format/Info                              : Advanced Video Codec
Format profile                           : High@L4
Format settings, CABAC                   : Yes
Format settings, ReFrames                : 4 frames
Codec ID                                 : avc1
Codec ID/Info                            : Advanced Video Coding
Duration                                 : 1h 47mn
Source duration                          : 1h 47mn
Bit rate                                 : 6 500 Kbps
Width                                    : 1 920 pixels
Height                                   : 1 040 pixels
Display aspect ratio                     : 1.85:1
Frame rate mode                          : Variable
Frame rate                               : 23.976 (24000/1001) fps
Minimum frame rate                       : 23.974 fps
Maximum frame rate                       : 23.981 fps
Color space                              : YUV
Chroma subsampling                       : 4:2:0
Bit depth                                : 8 bits
Scan type                                : Progressive
Bits/(Pixel*Frame)                       : 0.136
Stream size                              : 4.90 GiB (83%)
Source stream size                       : 4.90 GiB (83%)
Title                                    : Main Program
Writing library                          : x264 core 148 r2708 86b7198
Encoding settings                        : cabac=1 / ref=4 / deblock=1:-2:-2 / analyse=0x3:0x133 / me=umh / subme=10 / psy=1 / psy_rd=1.00:0.15 / mixed_ref=1 / me_range=32 / chroma_me=1 / trellis=2 / 8x8dct=1 / cqm=0 / deadzone=21,11 / fast_pskip=1 / chroma_qp_offset=-3 / threads=32 / lookahead_threads=8 / sliced_threads=0 / nr=0 / decimate=0 / interlaced=0 / bluray_compat=0 / constrained_intra=0 / bframes=16 / b_pyramid=2 / b_adapt=2 / b_bias=0 / direct=3 / weightb=1 / open_gop=0 / weightp=2 / keyint=240 / keyint_min=24 / scenecut=40 / intra_refresh=0 / rc_lookahead=40 / rc=2pass / mbtree=1 / bitrate=6500 / ratetol=1.0 / qcomp=0.70 / qpmin=0 / qpmax=69 / qpstep=4 / cplxblur=20.0 / qblur=0.5 / ip_ratio=1.40 / aq=1:1.00
Language                                 : English
Encoded date                             : UTC 2017-04-17 10:10:51
Tagged date                              : UTC 2017-04-17 10:11:06
Color range                              : Limited
Color primaries                          : BT.709
Transfer characteristics                 : BT.709
Matrix coefficients                      : BT.709
Menus                                    : 8,9
Video #2
ID                                       : 9
Format                                   : JPEG
Codec ID                                 : jpeg
Duration                                 : 1h 47mn
Bit rate mode                            : Variable
Bit rate                                 : 1 313 bps
Width                                    : 640 pixels
Height                                   : 346 pixels
Display aspect ratio                     : 1.85:1
Frame rate mode                          : Variable
Frame rate                               : 0.003 fps
Minimum frame rate                       : 0.002 fps
Maximum frame rate                       : 0.006 fps
Color space                              : YUV
Chroma subsampling                       : 4:2:0
Bit depth                                : 8 bits
Compression mode                         : Lossy
Bits/(Pixel*Frame)                       : 1.976
Stream size                              : 1.04 MiB (0%)
Title                                    : Chapter Images
Language                                 : English
Default                                  : No
Encoded date                             : UTC 2017-04-17 10:12:12
Tagged date                              : UTC 2017-04-17 10:12:13
Menu For                                 : 1
Audio #1
ID                                       : 2
Format                                   : AAC
Format/Info                              : Advanced Audio Codec
Format profile                           : LC
Codec ID                                 : 40
Duration                                 : 1h 47mn
Bit rate mode                            : Variable
Bit rate                                 : 158 Kbps
Maximum bit rate                         : 251 Kbps
Channel(s)                               : 2 channels
Channel positions                        : Front: L R
Sampling rate                            : 48.0 KHz
Frame rate                               : 46.875 fps (1024 spf)
Compression mode                         : Lossy
Stream size                              : 122 MiB (2%)
Title                                    : Russian Stereo
Language                                 : Russian
Default                                  : Yes
Alternate group                          : 1
Encoded date                             : UTC 2017-04-17 10:10:51
Tagged date                              : UTC 2017-04-17 10:11:07
Fallback From                            : 4
Menus                                    : 8
Audio #2
ID                                       : 3
Format                                   : AAC
Format/Info                              : Advanced Audio Codec
Format profile                           : LC
Codec ID                                 : 40
Duration                                 : 1h 47mn
Bit rate mode                            : Variable
Bit rate                                 : 158 Kbps
Maximum bit rate                         : 239 Kbps
Channel(s)                               : 2 channels
Channel positions                        : Front: L R
Sampling rate                            : 48.0 KHz
Frame rate                               : 46.875 fps (1024 spf)
Compression mode                         : Lossy
Stream size                              : 122 MiB (2%)
Title                                    : English Stereo
Language                                 : English
Default                                  : No
Alternate group                          : 1
Encoded date                             : UTC 2017-04-17 10:10:51
Tagged date                              : UTC 2017-04-17 10:11:07
Fallback From                            : 5
Audio #3
ID                                       : 4
Format                                   : AC-3
Format/Info                              : Audio Coding 3
Format settings, Endianness              : Big
Codec ID                                 : ac-3
Duration                                 : 1h 47mn
Bit rate mode                            : Constant
Bit rate                                 : 384 Kbps
Channel(s)                               : 6 channels
Channel positions                        : Front: L C R, Side: L R, LFE
Sampling rate                            : 48.0 KHz
Frame rate                               : 31.250 fps (1536 spf)
Bit depth                                : 16 bits
Compression mode                         : Lossy
Stream size                              : 296 MiB (5%)
Title                                    : Russian DD 5.1
Language                                 : Russian
Service kind                             : Complete Main
Default                                  : Inherited From: 2
Alternate group                          : 1
Encoded date                             : UTC 2017-04-17 10:10:51
Tagged date                              : UTC 2017-04-17 10:12:02
Fallback To                              : 2
Audio #4
ID                                       : 5
Format                                   : AC-3
Format/Info                              : Audio Coding 3
Format settings, Endianness              : Big
Codec ID                                 : ac-3
Duration                                 : 1h 47mn
Bit rate mode                            : Constant
Bit rate                                 : 640 Kbps
Channel(s)                               : 6 channels
Channel positions                        : Front: L C R, Side: L R, LFE
Sampling rate                            : 48.0 KHz
Frame rate                               : 31.250 fps (1536 spf)
Bit depth                                : 16 bits
Compression mode                         : Lossy
Stream size                              : 494 MiB (8%)
Title                                    : English DD 5.1
Language                                 : English
Service kind                             : Complete Main
Default                                  : No
Alternate group                          : 1
Encoded date                             : UTC 2017-04-17 10:10:51
Tagged date                              : UTC 2017-04-17 10:12:02
Fallback To                              : 3
Text #1
ID                                       : 6
Format                                   : Timed Text
Muxing mode                              : sbtl
Codec ID                                 : tx3g
Duration                                 : 1h 40mn
Bit rate mode                            : Variable
Bit rate                                 : 96 bps
Stream size                              : 70.6 KiB (0%)
Title                                    : Russian full
Language                                 : Russian
Default                                  : Yes
Forced                                   : No
Alternate group                          : 2
Encoded date                             : UTC 2017-04-17 10:10:51
Tagged date                              : UTC 2017-04-17 10:12:02
Text #2
ID                                       : 7
Format                                   : Timed Text
Muxing mode                              : sbtl
Codec ID                                 : tx3g
Duration                                 : 1h 40mn
Bit rate mode                            : Variable
Bit rate                                 : 63 bps
Stream size                              : 46.1 KiB (0%)
Title                                    : English full
Language                                 : English
Default                                  : No
Forced                                   : No
Alternate group                          : 2
Encoded date                             : UTC 2017-04-17 10:10:51
Tagged date                              : UTC 2017-04-17 10:12:02
Menu #1
00:00:00.000                             : Chapter 1
00:04:28.643                             : Chapter 2
00:10:36.469                             : Chapter 3
00:14:04.677                             : Chapter 4
00:18:32.653                             : Chapter 5
00:25:14.722                             : Chapter 6
00:30:04.052                             : Chapter 7
00:35:11.776                             : Chapter 8
00:40:07.405                             : Chapter 9
00:44:36.132                             : Chapter 10
00:50:26.148                             : Chapter 11
00:55:36.208                             : Chapter 12
01:04:40.710                             : Chapter 13
01:14:03.981                             : Chapter 14
01:19:17.962                             : Chapter 15
01:23:59.159                             : Chapter 16
01:26:56.461                             : Chapter 17
01:30:37.515                             : Chapter 18
01:34:47.182                             : Chapter 19
01:40:16.010                             : Chapter 20
Menu #2
ID                                       : 8
Codec ID                                 : text
Duration                                 : 1h 47mn
Language                                 : English
Encoded date                             : UTC 2017-04-17 10:12:02
Tagged date                              : UTC 2017-04-17 10:12:02
Menu For                                 : 2,1
00:00:00.000                             : Chapter 1
00:04:28.643                             : Chapter 2
00:10:36.469                             : Chapter 3
00:14:04.677                             : Chapter 4
00:18:32.653                             : Chapter 5
00:25:14.722                             : Chapter 6
00:30:04.052                             : Chapter 7
00:35:11.776                             : Chapter 8
00:40:07.405                             : Chapter 9
00:44:36.132                             : Chapter 10
00:50:26.148                             : Chapter 11
00:55:36.208                             : Chapter 12
01:04:40.710                             : Chapter 13
01:14:03.981                             : Chapter 14
01:19:17.962                             : Chapter 15
01:23:59.159                             : Chapter 16
01:26:56.461                             : Chapter 17
01:30:37.515                             : Chapter 18
01:34:47.182                             : Chapter 19
01:40:16.010                             : Chapter 20
Bit rate mode                            : VBR

Код:
Код: Выделить всё
x264 [info]: frame I:1086  Avg QP:18.85  size:229307
x264 [info]: frame P:38722 Avg QP:22.10  size: 60889
x264 [info]: frame B:115404 Avg QP:22.58  size: 22992
x264 [info]: consecutive B-frames:  4.2%  5.5% 13.8% 12.3% 13.6% 47.2%  2.5%  0.2%  0.2%  0.2%  0.1%  0.1%  0.1%  0.0%  0.0%  0.0%  0.0%
x264 [info]: mb I  I16..4:  4.9% 86.5%  8.6%
x264 [info]: mb P  I16..4:  2.8% 14.1%  1.2%  P16..4: 51.0% 13.7% 10.6%  0.1%  0.0%    skip: 6.3%
x264 [info]: mb B  I16..4:  0.2%  1.4%  0.1%  B16..8: 44.4%  6.2%  1.3%  direct: 5.1%  skip:41.4%  L0:46.4% L1:47.1% BI: 6.5%
x264 [info]: 8x8 transform intra:79.8% inter:73.9%
x264 [info]: direct mvs  spatial:96.6% temporal:3.4%
x264 [info]: coded y,uvDC,uvAC intra: 86.2% 82.8% 48.7% inter: 23.0% 24.4% 5.7%
x264 [info]: i16 v,h,dc,p: 15% 17%  8% 60%
x264 [info]: i8 v,h,dc,ddl,ddr,vr,hd,vl,hu:  8%  9%  4% 11% 15% 14% 15% 12% 13%
x264 [info]: i4 v,h,dc,ddl,ddr,vr,hd,vl,hu:  9%  9%  1% 10% 16% 15% 16% 11% 13%
x264 [info]: i8c dc,h,v,p: 31% 27% 22% 20%
x264 [info]: Weighted P-Frames: Y:3.2% UV:2.4%
x264 [info]: ref P L0: 52.8% 11.6% 24.2% 10.6%  0.8%  0.0%
x264 [info]: ref B L0: 81.8% 15.0%  3.2%
x264 [info]: ref B L1: 93.3%  6.7%
x264 [info]: kb/s:6500.27




Релиз подготовлен для просмотра на Apple TV, iPad, iPhone, iPod Touch.
Для просмотра данного релиза на компьютере с ОС Windows рекомендуется использовать VLC media player
Не забывайте говорить Спасибо. Не уходите с раздачи!   
Торрент: Зарегистрирован [25 мар 2018, 14:27] Для скачивания .torrent
необходима регистрация
Или скачать с помощью
MediaGet
Статус:
Проверен
 
.torrent скачан: 0 раз
Хэш: acde56fed7bdf3bc95b5658810f41aac31de8501
Размер: 5.92 ГБ (6 354 023 855 байт)
   Стать Автором раздачи
   
Цитата
  • Похожие торренты
    Ответы
    Просмотры
    Последнее сообщение

Вернуться в Мультфильмы HD для Apple TV

Кто сейчас на конференции

Сейчас эту тему просматривают: нет зарегистрированных пользователей и гости: 1