Тайна Коко / Coco (Эдриан Молина / Lee Unkrich ) [2017, США, Мультфильм, фэнтези, комедия, детектив, приключения, семейный, музыка, BDRip, HD (720p)] DUB + Original + sub (rus, eng)

 Статистика раздачи 
Размер: 3.55 ГБ   |  Зарегистрирован: 25 мар 2018, 14:23   |   .torrent скачан: 6 раз
Сидеров: 18  [ 0 байт/сек ]     Личеров: 6  [ 0 байт/сек ]  
  
Аватара пользователя
 
Раздал: 229.86 ГБ
Скачал: 427.97 ГБ
Ратио: 0.617
Сообщения: 184957
Стаж: 7 лет 5 месяцев 4 дня

Тайна Коко / Coco

«The celebration of a lifetime»
8.811 / 10 8.60 / 10
Год выпуска: 2017
Страна: США
Жанр: Mультфильм, фэнтези, комедия, детектив, приключения, семейный, музыка
Продолжительность: 01:45:02
Перевод: Дублированный (iTunes)
Оригинальная аудиодорожка: Есть
Cубтитры: Русские форсированные, Русские, Английские
Режиссёр: Эдриан Молина
Сценарий: Мэттью Олдрич, Эдриан Молина, Ли Анкрич
Продюсер: Дарла К. Андерсон, Мэри Элис Драмм, Джон Лассетер
Оператор: Мэтт Оспбэри, Даниэль Фейнберг
Композитор: Майкл Джаккино
Художник: Харли Джессуп, Tim Evatt
Монтаж: Стив Блум, Ли Анкрич
В ролях: Энтони Гонсалес, Гаэль Гарсиа Берналь, Бенджамин Брэтт, Аланна Юбак, Рене Виктор, Хайме Камиль, Альфонсо Арау, Херберт Сигенса, Габриэль Иглесиас, Ломбардо Бойяр
Сборы в США: $206 480 667
Сборы в мире: + $508 356 743 = $714 837 410
Сборы в России: $9 788 410
Мировая премьера: 20 октября 2017
Премьера (РФ): 23 ноября 2017, «WDSSPR»
Релиз на DVD: 20 марта 2018, «Уолт Дисней Компани СНГ»
Релиз на Blu-Ray: 20 марта 2018, «Уолт Дисней Компани СНГ»
Цифровой релиз: 16 февраля 2018, «Уолт Дисней Компани СНГ»
Описание: 12-летний Мигель живёт в мексиканской деревушке в семье сапожников и тайно мечтает стать музыкантом. Тайно — потому что в его семейном клане музыка считается проклятием. Когда-то его прапрадед оставил свою жену, прапрабабку Мигеля, ради мечты, которая теперь не даёт спокойно жить Мигелю. С тех пор музыкальная тема в семье стала табу. Мигель обнаруживает, что между ним и его любимым певцом Эрнесто де ла Крусом, ныне покойным, существует некая — пока неназванная — связь. Паренёк отправляется к своему кумиру в Страну Мёртвых, где встречает души своих предков. Мигель знакомится там с духом-трикстером по имени Гектор (в облике скелета), который становится его проводником. Вдвоём они отправляются на поиски де ла Круса.
Качество исходника: BDRemux (BlueBird)
Качество: BDRip
Тип: HD (720p)
Контейнер: M4V
Видео: H.264, 1280x544, 2.35:1, 3 500 Kbps, 23.976 (23976/1000) fps
Аудио 1: Русский/Дублированный (iTunes), AAC / 2.0 / 160 Kbps / 48.0 KHz
Аудио 2: Английский/Оригинальная дорожка , AAC / 2.0 / 160 Kbps / 48.0 KHz
Аудио 3: Русский/Дублированный (iTunes), AC-3 / 5.1 / 384 Kbps / 48.0 KHz
Аудио 4: Английский/Оригинальная дорожка , AC-3 / 5.1 / 640 Kbps / 48.0 KHz
Субтитры 1: Русские форсированные
Субтитры 2: Русские полные
Субтитры 3: Английские полные


Код:
Код: Выделить всё
Sort Name: Coco
XID: Apple:vendor_id:2017-679486
contentID: 1307301491
Copyright: © 2017 Disney/Pixar
Screenwriters: Мэттью Олдрич, Эдриан Молина, Ли Анкрич
Producers: Дарла К. Андерсон, Мэри Элис Драмм, Джон Лассетер
Director: Ли Анкрич, Эдриан Молина
Cast: Энтони Гонсалес, Гаэль Гарсиа Берналь, Бенджамин Брэтт, Аланна Юбак, Рене Виктор, Хайме Камиль, Альфонсо Арау, Херберт Сигенса, Габриэль Иглесиас, Ломбардо Бойяр
Studio: Pixar
Rating Annotation: Rated PG for thematic elements.
Rating: 3
Long Description: 12-летний Мигель живет в мексиканской деревушке в семье сапожников и тайно мечтает стать музыкантом. Тайно - потому что в его семейном клане музыка считается проклятием. Когда-то его прадед оставил свою жену, прабабку Мигеля, ради мечты, которая теперь не дает спокойно жить Мигелю. С тех пор музыкальная тема в семье стала табу. Мигель обнаруживает, что между ним и его любимым певцом Эрнесто де ла Крусом, ныне покойным, существует некая - пока неназванная - связь. Паренек отправляется к своему кумиру в Страну Мертвых, где встречает души своих предков. Коко знакомится там с духом-трикстером по имени Эктор (в облике скелета), который становится его напарником-проводником. Вдвоем они отправляются на поиски де ла Круса.
Description: 12-летний Мигель живет в мексиканской деревушке в семье сапожников и тайно мечтает стать музыкантом. Тайно - потому что в его семейном клане музыка считается проклятием...
Release Date: 2017-10-20T08:00:00Z
Genre: Kids & Family
Artist: Lee Unkrich
Name: Coco (2017)

Код:
Код: Выделить всё
General
Complete name                            : /Users/imac/HandBrake/Coco (720p HD).m4v
Format                                   : MPEG-4
Codec ID                                 : M4V  (M4V /M4A /mp42/isom)
File size                                : 3.55 GiB
Duration                                 : 1h 45mn
Overall bit rate mode                    : Variable
Overall bit rate                         : 4 836 Kbps
Movie name                               : Coco (2017)
Performer                                : Lee Unkrich
Director                                 : Ли Анкрич / Эдриан Молина
Actor                                    : Энтони Гонсалес / Гаэль Гарсиа Берналь / Бенджамин Брэтт / Аланна Юбак / Рене Виктор / Хайме Камиль / Альфонсо Арау / Херберт Сигенса / Габриэль Иглесиас / Ломбардо Бойяр
Screenplay by                            : Мэттью Олдрич / Эдриан Молина / Ли Анкрич
Producer                                 : Дарла К. Андерсон / Мэри Элис Драмм / Джон Лассетер
Production studio                        : Pixar
Genre                                    : Kids & Family
ContentType                              : Short Film
Description                              : 12-летний Мигель живет в мексиканской деревушке в семье сапожников и тайно мечтает стать музыкантом. Тайно - потому что в его семейном клане музыка считается проклятием...
Recorded date                            : UTC 2017-10-20 08:00:00
Encoded date                             : UTC 2018-02-17 14:22:07
Tagged date                              : UTC 2018-02-17 14:23:39
Copyright                                : © 2017 Disney/Pixar
Cover                                    : Yes
Rating                                   : None
Title/Sort                               : Coco
LongDescription                          : 12-летний Мигель живет в мексиканской деревушке в семье сапожников и тайно мечтает стать музыкантом. Тайно - потому что в его семейном клане музыка считается проклятием. Когда-то его прадед оставил свою жену, прабабку Мигеля, ради мечты, которая теперь не дает спокойно жить Мигелю. С тех пор музыкальная тема в семье стала табу. Мигель обнаруживает, что между ним и его любимым певцом Эрнесто де ла Крусом, ныне покойным, существует некая - пока неназванная - связь. Паренек отправляется к своему кумиру в Страну Мертвых, где встречает души своих предков. Коко знакомится там с духом-трикстером по имени Эктор (в облике скелета), который становится его напарником-проводником. Вдвоем они отправляются на поиски де ла Круса.
AppleStoreCatalogID                      : 1307301491
Vendor                                   : Apple:vendor_id:2017-679486
ContentRating                            : mpaa|PG|200|Rated PG for thematic elements.
Video #1
ID                                       : 1
Format                                   : AVC
Format/Info                              : Advanced Video Codec
Format profile                           : High@L3.1
Format settings                          : 3 Ref Frames
Format settings, CABAC                   : No
Format settings, ReFrames                : 3 frames
Codec ID                                 : avc1
Codec ID/Info                            : Advanced Video Coding
Duration                                 : 1h 45mn
Source duration                          : 1h 45mn
Bit rate                                 : 3 500 Kbps
Width                                    : 1 280 pixels
Height                                   : 544 pixels
Display aspect ratio                     : 2.35:1
Frame rate mode                          : Variable
Frame rate                               : 23.976 (23976/1000) fps
Minimum frame rate                       : 15.533 fps
Maximum frame rate                       : 23.981 fps
Color space                              : YUV
Chroma subsampling                       : 4:2:0
Bit depth                                : 8 bits
Scan type                                : Progressive
Bits/(Pixel*Frame)                       : 0.210
Stream size                              : 2.56 GiB (72%)
Source stream size                       : 2.56 GiB (72%)
Title                                    : Main Program
Writing library                          : x264 core 148 r2708 86b7198
Encoding settings                        : cabac=0 / ref=3 / deblock=1:-3:-3 / analyse=0x3:0x113 / me=umh / subme=9 / psy=1 / psy_rd=1.00:0.15 / mixed_ref=1 / me_range=32 / chroma_me=1 / trellis=0 / 8x8dct=1 / cqm=0 / deadzone=21,11 / fast_pskip=0 / chroma_qp_offset=-2 / threads=17 / lookahead_threads=1 / sliced_threads=0 / nr=0 / decimate=0 / interlaced=0 / bluray_compat=0 / constrained_intra=0 / bframes=3 / b_pyramid=0 / b_adapt=2 / b_bias=0 / direct=1 / weightb=0 / open_gop=0 / weightp=0 / keyint=240 / keyint_min=24 / scenecut=40 / intra_refresh=0 / rc_lookahead=40 / rc=2pass / mbtree=1 / bitrate=3500 / ratetol=1.0 / qcomp=0.65 / qpmin=0 / qpmax=69 / qpstep=4 / cplxblur=20.0 / qblur=0.5 / vbv_maxrate=9500 / vbv_bufsize=9500 / nal_hrd=none / filler=0 / ip_ratio=1.40 / aq=1:1.10
Language                                 : English
Encoded date                             : UTC 2018-02-17 14:22:08
Tagged date                              : UTC 2018-02-17 14:22:16
Color range                              : Limited
Color primaries                          : BT.709
Transfer characteristics                 : BT.709
Matrix coefficients                      : BT.709
Menus                                    : 9,10
Video #2
ID                                       : 10
Format                                   : JPEG
Codec ID                                 : jpeg
Duration                                 : 1h 45mn
Bit rate mode                            : Variable
Bit rate                                 : 1 496 bps
Width                                    : 640 pixels
Height                                   : 272 pixels
Display aspect ratio                     : 2.35:1
Frame rate mode                          : Variable
Frame rate                               : 0.004 fps
Minimum frame rate                       : 0.002 fps
Maximum frame rate                       : 0.014 fps
Color space                              : YUV
Chroma subsampling                       : 4:2:0
Bit depth                                : 8 bits
Compression mode                         : Lossy
Bits/(Pixel*Frame)                       : 2.148
Stream size                              : 1.25 MiB (0%)
Title                                    : Chapter Images
Language                                 : English
Default                                  : No
Encoded date                             : UTC 2018-02-17 14:22:26
Tagged date                              : UTC 2018-02-17 14:22:26
Menu For                                 : 1
Audio #1
ID                                       : 2
Format                                   : AAC
Format/Info                              : Advanced Audio Codec
Format profile                           : LC
Codec ID                                 : mp4a-40-2
Duration                                 : 1h 45mn
Source duration                          : 1h 45mn
Bit rate mode                            : Variable
Bit rate                                 : 157 Kbps
Maximum bit rate                         : 240 Kbps
Channel(s)                               : 2 channels
Channel positions                        : Front: L R
Sampling rate                            : 48.0 KHz
Frame rate                               : 46.875 fps (1024 SPF)
Compression mode                         : Lossy
Stream size                              : 118 MiB (3%)
Source stream size                       : 118 MiB (3%)
Title                                    : Russian Stereo
Language                                 : Russian
Default                                  : Yes
Alternate group                          : 1
Encoded date                             : UTC 2018-02-17 14:22:08
Tagged date                              : UTC 2018-02-17 14:22:20
Fallback From                            : 4
Subtitles                                : 6,7
Audio #2
ID                                       : 3
Format                                   : AAC
Format/Info                              : Advanced Audio Codec
Format profile                           : LC
Codec ID                                 : mp4a-40-2
Duration                                 : 1h 45mn
Source duration                          : 1h 45mn
Bit rate mode                            : Variable
Bit rate                                 : 158 Kbps
Maximum bit rate                         : 252 Kbps
Channel(s)                               : 2 channels
Channel positions                        : Front: L R
Sampling rate                            : 48.0 KHz
Frame rate                               : 46.875 fps (1024 SPF)
Compression mode                         : Lossy
Stream size                              : 119 MiB (3%)
Source stream size                       : 119 MiB (3%)
Title                                    : English Stereo
Language                                 : English
Default                                  : No
Alternate group                          : 1
Encoded date                             : UTC 2018-02-17 14:22:08
Tagged date                              : UTC 2018-02-17 14:22:20
Fallback From                            : 5
Audio #3
ID                                       : 4
Format                                   : AC-3
Format/Info                              : Audio Coding 3
Codec ID                                 : ac-3
Duration                                 : 1h 45mn
Bit rate mode                            : Constant
Bit rate                                 : 384 Kbps
Channel(s)                               : 6 channels
Channel positions                        : Front: L C R, Side: L R, LFE
Sampling rate                            : 48.0 KHz
Frame rate                               : 31.250 fps (1536 SPF)
Bit depth                                : 16 bits
Compression mode                         : Lossy
Stream size                              : 288 MiB (8%)
Title                                    : Russian DD 5.1
Language                                 : Russian
Service kind                             : Complete Main
Default                                  : Inherited From: 2
Alternate group                          : 1
Encoded date                             : UTC 2018-02-17 14:22:08
Tagged date                              : UTC 2018-02-17 14:22:20
Fallback To                              : 2
Subtitles                                : 6,7
Audio #4
ID                                       : 5
Format                                   : AC-3
Format/Info                              : Audio Coding 3
Codec ID                                 : ac-3
Duration                                 : 1h 45mn
Bit rate mode                            : Constant
Bit rate                                 : 640 Kbps
Channel(s)                               : 6 channels
Channel positions                        : Front: L C R, Side: L R, LFE
Sampling rate                            : 48.0 KHz
Frame rate                               : 31.250 fps (1536 SPF)
Bit depth                                : 16 bits
Compression mode                         : Lossy
Stream size                              : 481 MiB (13%)
Title                                    : English DD 5.1
Language                                 : English
Service kind                             : Complete Main
Default                                  : No
Alternate group                          : 1
Encoded date                             : UTC 2018-02-17 14:22:08
Tagged date                              : UTC 2018-02-17 14:22:20
Fallback To                              : 3
Text #1
ID                                       : 6
Format                                   : Timed Text
Muxing mode                              : sbtl
Codec ID                                 : tx3g
Duration                                 : 7mn 20s
Duration_FirstFrame                      : 7mn 18s
Duration_LastFrame                       : -918ms
Bit rate mode                            : Variable
Bit rate                                 : 1 bps
Stream size                              : 66.0 Bytes (0%)
Title                                    : Russian forced
Language                                 : Russian
Default                                  : Yes
Forced                                   : Yes
Alternate group                          : 2
Encoded date                             : UTC 2018-02-17 14:22:08
Tagged date                              : UTC 2018-02-17 14:22:09
Subtitles For                            : 2,4
Full Alternative                         : 7
Text #2
ID                                       : 7
Format                                   : Timed Text
Muxing mode                              : sbtl
Codec ID                                 : tx3g
Duration                                 : 1h 35mn
Bit rate mode                            : Variable
Bit rate                                 : 104 bps
Stream size                              : 72.8 KiB (0%)
Title                                    : Russian full
Language                                 : Russian
Default                                  : No
Forced                                   : No
Alternate group                          : 2
Encoded date                             : UTC 2018-02-17 14:22:08
Tagged date                              : UTC 2018-02-17 14:22:19
Subtitles For                            : 2,4
Forced Alternative                       : 6
Text #3
ID                                       : 8
Format                                   : Timed Text
Muxing mode                              : sbtl
Codec ID                                 : tx3g
Duration                                 : 1h 38mn
Bit rate mode                            : Variable
Bit rate                                 : 70 bps
Stream size                              : 50.5 KiB (0%)
Title                                    : English full
Language                                 : English
Default                                  : No
Forced                                   : No
Alternate group                          : 2
Encoded date                             : UTC 2018-02-17 14:22:08
Tagged date                              : UTC 2018-02-17 14:22:19
Menu #1
00:00:00.000                             : Chapter 1
00:06:40.200                             : Chapter 2
00:08:41.544                             : Chapter 3
00:11:13.576                             : Chapter 4
00:14:20.310                             : Chapter 5
00:17:06.962                             : Chapter 6
00:18:20.953                             : Chapter 7
00:22:06.011                             : Chapter 8
00:24:19.978                             : Chapter 9
00:27:44.831                             : Chapter 10
00:29:07.922                             : Chapter 11
00:32:15.323                             : Chapter 12
00:35:18.426                             : Chapter 13
00:41:25.527                             : Chapter 14
00:47:04.699                             : Chapter 15
00:50:54.178                             : Chapter 16
00:54:23.888                             : Chapter 17
00:56:45.029                             : Chapter 18
01:01:42.634                             : Chapter 19
01:03:28.156                             : Chapter 20
01:08:58.207                             : Chapter 21
01:15:17.252                             : Chapter 22
01:18:56.773                             : Chapter 23
01:21:31.765                             : Chapter 24
01:24:31.820                             : Chapter 25
01:28:23.477                             : Chapter 26
01:33:14.775                             : Chapter 27
01:36:10.479                             : Chapter 28
Menu #2
ID                                       : 9
Codec ID                                 : text
Duration                                 : 1h 45mn
Language                                 : English
Encoded date                             : UTC 2018-02-17 14:22:20
Tagged date                              : UTC 2018-02-17 14:22:20
Menu For                                 : 1
00:00:00.000                             : Chapter 1
00:06:40.200                             : Chapter 2
00:08:41.544                             : Chapter 3
00:11:13.576                             : Chapter 4
00:14:20.310                             : Chapter 5
00:17:06.962                             : Chapter 6
00:18:20.953                             : Chapter 7
00:22:06.011                             : Chapter 8
00:24:19.978                             : Chapter 9
00:27:44.831                             : Chapter 10
00:29:07.922                             : Chapter 11
00:32:15.323                             : Chapter 12
00:35:18.426                             : Chapter 13
00:41:25.527                             : Chapter 14
00:47:04.699                             : Chapter 15
00:50:54.178                             : Chapter 16
00:54:23.888                             : Chapter 17
00:56:45.029                             : Chapter 18
01:01:42.634                             : Chapter 19
01:03:28.156                             : Chapter 20
01:08:58.207                             : Chapter 21
01:15:17.252                             : Chapter 22
01:18:56.773                             : Chapter 23
01:21:31.765                             : Chapter 24
01:24:31.820                             : Chapter 25
01:28:23.477                             : Chapter 26
01:33:14.775                             : Chapter 27
01:36:10.479                             : Chapter 28
Bit rate mode                            : VBR

Код:
Код: Выделить всё
x264 [info]: frame I:1626  Avg QP:15.72  size:118699
x264 [info]: frame P:64561 Avg QP:18.68  size: 31183
x264 [info]: frame B:84910 Avg QP:21.46  size:  6346
x264 [info]: consecutive B-frames:  8.3% 41.3% 26.9% 23.5%
x264 [info]: mb I  I16..4:  5.2% 53.9% 40.9%
x264 [info]: mb P  I16..4:  1.3%  4.1%  2.6%  P16..4: 50.7% 25.1% 11.6%  0.0%  0.0%    skip: 4.6%
x264 [info]: mb B  I16..4:  0.1%  0.4%  0.3%  B16..8: 42.5%  8.3%  1.6%  direct: 2.7%  skip:44.0%  L0:36.8% L1:53.3% BI: 9.9%
x264 [info]: 8x8 transform intra:51.8% inter:42.6%
x264 [info]: coded y,uvDC,uvAC intra: 81.9% 88.3% 72.8% inter: 23.0% 24.5% 16.4%
x264 [info]: i16 v,h,dc,p: 32% 16%  7% 46%
x264 [info]: i8 v,h,dc,ddl,ddr,vr,hd,vl,hu:  9%  9%  4% 11% 15% 14% 14% 11% 13%
x264 [info]: i4 v,h,dc,ddl,ddr,vr,hd,vl,hu: 10% 10%  3% 11% 16% 15% 14% 11% 10%
x264 [info]: i8c dc,h,v,p: 45% 19% 20% 15%
x264 [info]: ref P L0: 75.9% 14.1% 10.0%
x264 [info]: ref B L0: 83.0% 17.0%
x264 [info]: kb/s:3484.58




Релиз подготовлен для просмотра на Apple TV, iPad, iPhone, iPod Touch.
Для просмотра данного релиза на компьютере с ОС Windows рекомендуется использовать VLC media player
Не забывайте говорить Спасибо. Не уходите с раздачи!   
Торрент: Зарегистрирован [25 мар 2018, 14:23] Для скачивания .torrent
необходима регистрация
Или скачать с помощью
MediaGet
Статус:
Проверен
 
.torrent скачан: 6 раз
Хэш: a4713f7559155fbdf10b618e46755856330dccae
Размер: 3.55 ГБ (3 809 542 310 байт)
   Стать Автором раздачи
   
Цитата
  • Похожие торренты
    Ответы
    Просмотры
    Последнее сообщение

Вернуться в Мультфильмы HD для Apple TV

Кто сейчас на конференции

Сейчас эту тему просматривают: нет зарегистрированных пользователей и гости: 1