Jimmy Rosenberg - Trio (2004) Hot Club Records [FLAC|Lossless|tracks + .cue] <Gypsy Jazz, Swing>

Приложения для линукс, юникс и других ОС
 Статистика раздачи 
Размер: 168.49 МБ   |  Зарегистрирован: 21 мар 2018, 15:31   |   .torrent скачан: 0 раз
Сидеров: 4  [ 0 байт/сек ]     Личеров: 2  [ 0 байт/сек ]  
  
Аватара пользователя
 
Раздал: 3.35 ТБ
Скачал: 63.98 ГБ
Ратио: 53.567
Сообщения: 197058
Стаж: 1 год 7 месяцев 26 дней

Jimmy Rosenberg - Trio (2004) Hot Club Records

Жанр: Gypsy Jazz, Swing
Издание: Hot Club Records - HCRCD 170
Продолжительность: 00:31:44

Кодек: FLAC (tracks+.cue)
Битрейт: Lossless
Источник (релизер): sharky77
Страна-производитель диска: Norway
Наличие сканов в содержимом раздачи: да

Треклист:

01. Just One of Those Things [02:41]
02. China Boy [01:47]
03. Made for Wesley [03:20]
04. Cherokee [01:56]
05. Noto Swing [02:12]
06. Chega de Saudade [03:48]
07. Place de Broukere [02:43]
08. Number One [02:15]
09. Swing 48 [02:19]
10. Blue Bossa [03:39]
11. Old Waltz [02:56]
12. Georgia [02:13]
Код: Выделить всё
Exact Audio Copy V1.1 from 23. June 2015

EAC extraction logfile from 12. July 2016, 17:05

Jimmy Rosenberg / Trio

Used drive  : Optiarc DVD RW AD-7740H   Adapter: 1  ID: 0

Read mode               : Secure
Utilize accurate stream : Yes
Defeat audio cache      : Yes
Make use of C2 pointers : No

Read offset correction                      : 48
Overread into Lead-In and Lead-Out          : No
Fill up missing offset samples with silence : Yes
Delete leading and trailing silent blocks   : No
Null samples used in CRC calculations       : Yes
Used interface                              : Native Win32 interface for Win NT & 2000
Gap handling                                : Appended to previous track

Used output format              : User Defined Encoder
Selected bitrate                : 1024 kBit/s
Quality                         : High
Add ID3 tag                     : No
Command line compressor         : C:\Program Files (x86)\Exact Audio Copy\Flac\flac.exe
Additional command line options : -8 -V -T "ARTIST=%artist%" -T "TITLE=%title%" -T "ALBUM=%albumtitle%" -T "DATE=%year%" -T "TRACKNUMBER=%tracknr%" -T "GENRE=%genre%" -T "PERFORMER=%albuminterpret%" -T "COMPOSER=%composer%" %haslyrics%--tag-from-file=LYRICS="%lyricsfile%"%haslyrics% -T "ALBUMARTIST=%albumartist%" -T "DISCNUMBER=%cdnumber%" -T "TOTALDISCS=%totalcds%" -T "TOTALTRACKS=%numtracks%" -T "COMMENT=%comment%" %source% -o %dest%

TOC of the extracted CD

     Track |   Start  |  Length  | Start sector | End sector
    ---------------------------------------------------------
        1  |  0:00.00 |  2:40.42 |         0    |    12041
        2  |  2:40.42 |  1:46.08 |     12042    |    19999
        3  |  4:26.50 |  3:19.30 |     20000    |    34954
        4  |  7:46.05 |  1:55.67 |     34955    |    43646
        5  |  9:41.72 |  2:11.70 |     43647    |    53541
        6  | 11:53.67 |  3:47.28 |     53542    |    70594
        7  | 15:41.20 |  2:42.20 |     70595    |    82764
        8  | 18:23.40 |  2:14.50 |     82765    |    92864
        9  | 20:38.15 |  2:18.50 |     92865    |   103264
       10  | 22:56.65 |  3:38.72 |    103265    |   119686
       11  | 26:35.62 |  2:55.50 |    119687    |   132861
       12  | 29:31.37 |  2:12.25 |    132862    |   142786

Track  1

     Filename E:\EAC Rips\Jimmy Rosenberg - Trio [FLAC]\01 Just One of Those Things.wav

     Pre-gap length  0:00:02.00

     Peak level 100.0 %
     Extraction speed 2.1 X
     Track quality 100.0 %
     Test CRC C39FE469
     Copy CRC C39FE469
     Accurately ripped (confidence 5)  [9CD815D4]  (AR v2)
     Copy OK

Track  2

     Filename E:\EAC Rips\Jimmy Rosenberg - Trio [FLAC]\02 China Boy.wav

     Peak level 100.0 %
     Extraction speed 2.0 X
     Track quality 100.0 %
     Test CRC 1316C1FE
     Copy CRC 1316C1FE
     Accurately ripped (confidence 5)  [AD63D5D1]  (AR v2)
     Copy OK

Track  3

     Filename E:\EAC Rips\Jimmy Rosenberg - Trio [FLAC]\03 Made For Wesley.wav

     Peak level 100.0 %
     Extraction speed 2.5 X
     Track quality 100.0 %
     Test CRC 9EB102BE
     Copy CRC 9EB102BE
     Accurately ripped (confidence 5)  [04529336]  (AR v2)
     Copy OK

Track  4

     Filename E:\EAC Rips\Jimmy Rosenberg - Trio [FLAC]\04 Cherokee.wav

     Peak level 98.8 %
     Extraction speed 2.3 X
     Track quality 100.0 %
     Test CRC 3318CCD5
     Copy CRC 3318CCD5
     Accurately ripped (confidence 5)  [7E61B322]  (AR v2)
     Copy OK

Track  5

     Filename E:\EAC Rips\Jimmy Rosenberg - Trio [FLAC]\05 Nato Swing.wav

     Peak level 100.0 %
     Extraction speed 2.5 X
     Track quality 100.0 %
     Test CRC 83F0EBF8
     Copy CRC 83F0EBF8
     Accurately ripped (confidence 5)  [02788BE2]  (AR v2)
     Copy OK

Track  6

     Filename E:\EAC Rips\Jimmy Rosenberg - Trio [FLAC]\06 Chega de Saudade.wav

     Peak level 100.0 %
     Extraction speed 2.0 X
     Track quality 99.9 %
     Test CRC 1FA59EB6
     Copy CRC 1FA59EB6
     Accurately ripped (confidence 4)  [D7F1F824]  (AR v2)
     Copy OK

Track  7

     Filename E:\EAC Rips\Jimmy Rosenberg - Trio [FLAC]\07 Place de Broukere.wav

     Peak level 100.0 %
     Extraction speed 2.9 X
     Track quality 100.0 %
     Test CRC 6FF9FC0E
     Copy CRC 6FF9FC0E
     Accurately ripped (confidence 4)  [427B16EB]  (AR v2)
     Copy OK

Track  8

     Filename E:\EAC Rips\Jimmy Rosenberg - Trio [FLAC]\08 Number One.wav

     Peak level 97.9 %
     Extraction speed 2.9 X
     Track quality 100.0 %
     Test CRC 82DE9F6D
     Copy CRC 82DE9F6D
     Accurately ripped (confidence 4)  [E8616CCA]  (AR v2)
     Copy OK

Track  9

     Filename E:\EAC Rips\Jimmy Rosenberg - Trio [FLAC]\09 Swing 48.wav

     Peak level 100.0 %
     Extraction speed 3.0 X
     Track quality 100.0 %
     Test CRC 916D3264
     Copy CRC 916D3264
     Accurately ripped (confidence 4)  [95A97BBE]  (AR v2)
     Copy OK

Track 10

     Filename E:\EAC Rips\Jimmy Rosenberg - Trio [FLAC]\10 Blue Bossa.wav

     Peak level 97.9 %
     Extraction speed 3.4 X
     Track quality 100.0 %
     Test CRC B6DFCA6E
     Copy CRC B6DFCA6E
     Accurately ripped (confidence 5)  [E9AF7A00]  (AR v2)
     Copy OK

Track 11

     Filename E:\EAC Rips\Jimmy Rosenberg - Trio [FLAC]\11 Old Waltz.wav

     Peak level 97.7 %
     Extraction speed 3.4 X
     Track quality 100.0 %
     Test CRC ED00EC49
     Copy CRC ED00EC49
     Accurately ripped (confidence 5)  [F1754BDF]  (AR v2)
     Copy OK

Track 12

     Filename E:\EAC Rips\Jimmy Rosenberg - Trio [FLAC]\12 Georgia.wav

     Peak level 100.0 %
     Extraction speed 3.3 X
     Track quality 100.0 %
     Test CRC 578F7978
     Copy CRC 578F7978
     Accurately ripped (confidence 5)  [FD47640D]  (AR v2)
     Copy OK

All tracks accurately ripped

No errors occurred

End of status report

---- CUETools DB Plugin V2.1.6

[CTDB TOCID: z_p9dYLttHi0cnYGQPGCe4LWlzE-] found
Submit result: z_p9dYLttHi0cnYGQPGCe4LWlzE- has been confirmed
Track | CTDB Status
  1   | (5/5) Accurately ripped
  2   | (5/5) Accurately ripped
  3   | (5/5) Accurately ripped
  4   | (5/5) Accurately ripped
  5   | (5/5) Accurately ripped
  6   | (5/5) Accurately ripped
  7   | (5/5) Accurately ripped
  8   | (5/5) Accurately ripped
  9   | (5/5) Accurately ripped
 10   | (5/5) Accurately ripped
 11   | (5/5) Accurately ripped
 12   | (5/5) Accurately ripped

==== Log checksum AF7C89BE7B691B66AA9745452497B95A3A12A1497530F17F984EFDFDAA082C18 ====
Код: Выделить всё
REM GENRE Jazz
REM DATE 2004
REM DISCID A3076F0C
REM COMMENT "ExactAudioCopy v1.1"
PERFORMER "Jimmy Rosenberg"
TITLE "Trio"
FILE "01 - Just One of Those Things.wav" WAVE
  TRACK 01 AUDIO
    TITLE "Just One of Those Things"
    PERFORMER "Jimmy Rosenberg"
    ISRC NOFHH0470010
    INDEX 01 00:00:00
FILE "02 - China Boy.wav" WAVE
  TRACK 02 AUDIO
    TITLE "China Boy"
    PERFORMER "Jimmy Rosenberg"
    ISRC NOFHH0470020
    INDEX 01 00:00:00
FILE "03 - Made for Wesley.wav" WAVE
  TRACK 03 AUDIO
    TITLE "Made for Wesley"
    PERFORMER "Jimmy Rosenberg"
    ISRC NOFHH0470030
    INDEX 01 00:00:00
FILE "04 - Cherokee.wav" WAVE
  TRACK 04 AUDIO
    TITLE "Cherokee"
    PERFORMER "Jimmy Rosenberg"
    ISRC NOFHH0470040
    INDEX 01 00:00:00
FILE "05 - Noto Swing.wav" WAVE
  TRACK 05 AUDIO
    TITLE "Noto Swing"
    PERFORMER "Jimmy Rosenberg"
    ISRC NOFHH0470050
    INDEX 01 00:00:00
FILE "06 - Chega de Saudade.wav" WAVE
  TRACK 06 AUDIO
    TITLE "Chega de Saudade"
    PERFORMER "Jimmy Rosenberg"
    ISRC NOFHH0470060
    INDEX 01 00:00:00
FILE "07 - Place de Broukere.wav" WAVE
  TRACK 07 AUDIO
    TITLE "Place de Broukere"
    PERFORMER "Jimmy Rosenberg"
    ISRC NOFHH0470070
    INDEX 01 00:00:00
FILE "08 - Number One.wav" WAVE
  TRACK 08 AUDIO
    TITLE "Number One"
    PERFORMER "Jimmy Rosenberg"
    ISRC NOFHH0470080
    INDEX 01 00:00:00
FILE "09 - Swing 48.wav" WAVE
  TRACK 09 AUDIO
    TITLE "Swing 48"
    PERFORMER "Jimmy Rosenberg"
    ISRC NOFHH0470090
    INDEX 01 00:00:00
FILE "10 - Blue Bossa.wav" WAVE
  TRACK 10 AUDIO
    TITLE "Blue Bossa"
    PERFORMER "Jimmy Rosenberg"
    ISRC NOFHH0470100
    INDEX 01 00:00:00
FILE "11 - Old Waltz.wav" WAVE
  TRACK 11 AUDIO
    TITLE "Old Waltz"
    PERFORMER "Jimmy Rosenberg"
    ISRC NOFHH0470110
    INDEX 01 00:00:00
FILE "12 - Georgia.wav" WAVE
  TRACK 12 AUDIO
    TITLE "Georgia"
    PERFORMER "Jimmy Rosenberg"
    ISRC NOFHH0470120
    INDEX 01 00:00:00
Код: Выделить всё
-----------------------

DON'T MODIFY THIS FILE

-----------------------

PERFORMER: auCDtect Task Manager, ver. 1.6.0 RC1 build 1.6.0.1
Copyright (c) 2008-2010 y-soft. All rights reserved
[url=http://y-soft.org]http://y-soft.org[/url]

ANALYZER: auCDtect: CD records authenticity detector, version 0.8.2
Copyright (c) 2004 Oleg Berngardt. All rights reserved.
Copyright (c) 2004 Alexander Djourik. All rights reserved.

FILE: 12 - Georgia.flac
  Size: 12338288 Hash: BB0BFBFFF03CB700125B2A6810CD61BA Accuracy: -m0
  Conclusion: CDDA 100%
  Signature: AD1358AA5B0BE405BBB199B2065C51FCA8A03F9C
FILE: 11 - Old Waltz.flac
  Size: 16552434 Hash: 6BD380F76BC99F0B4874E7D823BE8690 Accuracy: -m0
  Conclusion: CDDA 100%
  Signature: 801DF1BA2E0ACC8BD4E3C889C4294CBDFD116B02
FILE: 10 - Blue Bossa.flac
  Size: 19250596 Hash: CED1DB0D51DC89FA421C5758ACEB5899 Accuracy: -m0
  Conclusion: CDDA 100%
  Signature: 796A84B2D517D780A8989571092B237FA3F2FA43
FILE: 09 - Swing 48.flac
  Size: 12928355 Hash: C98EDE2613F1DCBEC30CF801678D71E2 Accuracy: -m0
  Conclusion: CDDA 100%
  Signature: 6D51139E5DDFC01BAFD342CD00F6C9DA9F767207
FILE: 08 - Number One.flac
  Size: 12286868 Hash: 1E9BB9BBA60CD0F6035E77261AE639FB Accuracy: -m0
  Conclusion: CDDA 100%
  Signature: ED8F0E57A8F6800910554D78B62EB2D81BA182AE
FILE: 07 - Place de Broukere.flac
  Size: 15672439 Hash: 93E2FAED2FCF274B1D91A91BB75D4D2F Accuracy: -m0
  Conclusion: CDDA 100%
  Signature: 0CDA11F0C92C8C6AFA061DF8F178F479CAA48ABE
FILE: 06 - Chega de Saudade.flac
  Size: 20759030 Hash: 77E5D30A2B1120D4FEA3BA02E690ACD9 Accuracy: -m0
  Conclusion: CDDA 100%
  Signature: 232E81258CB5E452BFBB35D80AC63659C317ABCA
FILE: 05 - Noto Swing.flac
  Size: 12027833 Hash: 9B1AA794E50462C5060B255B05080EC2 Accuracy: -m0
  Conclusion: CDDA 100%
  Signature: 951C3409C3A715039135370F5FA3EE7A830AD4DA
FILE: 04 - Cherokee.flac
  Size: 10296521 Hash: 366503082DDCA3A7E848D14DEDC45B30 Accuracy: -m0
  Conclusion: CDDA 100%
  Signature: FB59DD2D5F915AECD323DB9D4513DB4C4BBCFF22
FILE: 03 - Made for Wesley.flac
  Size: 17358357 Hash: 74B7F85943E52DB0FD468D5DBADAC8B3 Accuracy: -m0
  Conclusion: CDDA 100%
  Signature: 250D7C3BE7EBFEFB216B395676EAA4A922857A83
FILE: 02 - China Boy.flac
  Size: 10208584 Hash: 6B03535B8E43DB03AB9EDEA36D0B94B6 Accuracy: -m0
  Conclusion: CDDA 100%
  Signature: 9C483D473AC346F0BB5883D3BD34223B2B328A5B
FILE: 01 - Just One of Those Things.flac
  Size: 15467326 Hash: 79D6DBC168081415A956AE0FF8B33BFA Accuracy: -m0
  Conclusion: CDDA 100%
  Signature: FDF70CB62518DEDC8B7C2FB9331C98EB012A7378
Jimmy Rosenberg, Nomy Rosenberg - guitar
Svein Aarbostad - bass

Recorded at the Cookie Factory Studio, Oslo on February 1-2, 2004.
Время раздачи: c 15:00 до 22:00 (до появления первых 3-5 скачавших)
#7
Код: Выделить всё
[b]Поглощение/вытеснение [/b]
[b]Только с согласия релизера[/b]
[b][u][i]SoulEater[/b][/i][/u]
Не забывайте говорить Спасибо. Не уходите с раздачи!   
Торрент: Зарегистрирован [21 мар 2018, 15:31] Для скачивания .torrent
необходима регистрация
Или скачать с помощью
MediaGet
Статус:
Проверен
 
.torrent скачан: 0 раз
Хэш: 93fc4093891664251cba0c08d7b7d893799fb162
Размер: 168.49 МБ (176 671 517 байт)
   Стать Автором раздачи
   
Цитата
  • Похожие торренты
    Ответы
    Просмотры
    Последнее сообщение

Вернуться в Linux, Unix и другие ОС

Кто сейчас на конференции

Сейчас эту тему просматривают: нет зарегистрированных пользователей и гости: 1