Рузвельт (2006) SATRip (2 серии из 2)

 Статистика раздачи 
Размер: 1.29 ГБ   |  Зарегистрирован: 10 янв 2018, 17:35   |   .torrent скачан: 164 раз
Сидеров: 11  [ 0 байт/сек ]     Личеров: 3  [ 0 байт/сек ]  
  
Аватара пользователя
 
Раздал: 0 байт
Скачал: 0 байт
Ратио: Inf.
Сообщения: 182851
Стаж: 7 лет 8 месяцев
Откуда: Rossiya
СообщениеДобавлено: 10 янв 2018, 14:17


Рузвельт (2006) SATRip (2 серии из 2)

Телекомпания: Россия
Жанр: Документальный, биография, история

Режиссер: Александр Иванкин, Артем Чащихин-Тоидзе

Описание:
Франклин Делано Рузвельт был единственным американским президентом, который избирался на этот пост четыре раза подряд. По недавним опросам историков и политологов он признан самым великим президентом США в ХХ веке. Франклин Рузвельт сумел провести Америку через самые трудные времена в ее истории - Великую депрессию и Вторую мировую войну...

Релиз от: alf62
Продолжительность: 2 х ~ 00:43:56
Качество видео: SATRip

Видео: Xvid, 704x528, ~1900 Kbps
Аудио: AC3, 2 ch, 192 Kbps
1. Война с олигархами
В результате тяжелой болезни, поразившей его в самом расцвете сил, он стал инвалидом. Но вопреки всему, не только достиг вершин политической карьеры, но и вытащил страну из пучины экономического кризиса. Для этого ему пришлось вступить в беспощадную схватку с финансовыми и промышленными магнатами, преступностью и коррупцией. «Нам нечего бояться, кроме страха, - говорил Рузвельт. – Вместе мы непобедимы».

2. Править миром
Американцам казалось, что океаны и некая особая американская добродетель надежно защищают их от мирового зла. В отличие от большинства соотечественников Рузвельт ясно видел угрозу и смог подготовить Америку ко вступлению в войну и к победе в ней. Именно при Рузвельте произошло превращение США в сверхдержаву. Однако, споря с Черчиллем, он признавал право СССР на собственную зону влияния в послевоенном мире. Двух недель он не дожил до открытия первой ассамблеи ООН, созданной по его инициативе…
Код: Выделить всё
Рузвельт.(2.серии.из.2).2006.XviD.SATRip.alf62\1.Война.с.олигархами.2006.XviD.SATRip.alf62.avi
Формат                                   : AVI
Формат/Информация                        : Audio Video Interleave
Размер файла                             : 661 Мбайт
Продолжительность                        : 43 м.
Общий поток                              : 2101 Кбит/сек
Программа кодирования                    : VirtualDubMod 1.5.10.3 | [url=http://www.virtualdub-fr.org]www.virtualdub-fr.org[/url] || (build 2550/release)
Библиотека кодирования                   : VirtualDubMod build 2550/release

Видео
Идентификатор                            : 0
Формат                                   : MPEG-4 Visual
Профиль формата                          : Advanced Simple@L5
Параметр BVOP формата                    : 2
Параметр QPel формата                    : Нет
Параметр GMC формата                     : Без точки перехода
Параметр матрицы формата                 : Default (MPEG)
Идентификатор кодека                     : XVID
Идентификатор кодека/Подсказка           : XviD
Продолжительность                        : 43 м.
Битрейт                                  : 1900 Кбит/сек
Ширина                                   : 704 пикселя
Высота                                   : 528 пикселей
Соотношение сторон                       : 4:3
Частота кадров                           : 25,000 кадров/сек
Цветовое пространство                    : YUV
Субдискретизация насыщенности            : 4:2:0
Битовая глубина                          : 8 бит
Тип развёртки                            : Прогрессивная
Метод сжатия                             : С потерями
Бит/(Пиксели*Кадры)                      : 0.204
Размер потока                            : 598 Мбайт (90%)
Библиотека кодирования                   : XviD 73

Аудио
Идентификатор                            : 1
Формат                                   : AC-3
Формат/Информация                        : Audio Coding 3
Расширение режима                        : CM (complete main)
Параметр Endianness формата              : Big
Идентификатор кодека                     : 2000
Продолжительность                        : 43 м.
Вид битрейта                             : Постоянный
Битрейт                                  : 192 Кбит/сек
Каналы                                   : 2 канала
Расположение каналов                     : Front: L R
Частота                                  : 48,0 КГц
Битовая глубина                          : 16 бит
Метод сжатия                             : С потерями
Размер потока                            : 60,4 Мбайт (9%)
Выравнивание                             : Разделение по промежуткам
Продолжительность промежутка             : 40  мс. (1,00 видеокадр)
Время предзагрузки промежутка            : 500  мс.

Скриншоты:







Время раздачи: до появления первых 3-5 скачавших
Не забывайте говорить Спасибо. Не уходите с раздачи!   
Торрент: Зарегистрирован [10 янв 2018, 17:35] Для скачивания .torrent
необходима регистрация
Или скачать с помощью
MediaGet
Статус:
Проверен
 
.torrent скачан: 164 раз
Размер: 1.29 ГБ (1 386 121 216 байт)
   Стать Автором раздачи
   
Цитата

Вернуться в Личности

Кто сейчас на конференции

Сейчас эту тему просматривают: нет зарегистрированных пользователей и гости: 1