Я – Али / I Am Ali (2014) HDRip

 Статистика раздачи 
Размер: 2.06 ГБ   |  Зарегистрирован: 10 янв 2018, 17:35   |   .torrent скачан: 0 раз
Сидеров: 0  [ 0 байт/сек ]     Личеров: 0  [ 0 байт/сек ]  
  
Аватара пользователя
 
Раздал: 0 байт
Скачал: 0 байт
Ратио: Inf.
Сообщения: 142402
Стаж: 7 лет 5 месяцев 5 дней
Откуда: Rossiya
СообщениеДобавлено: 06 дек 2014, 00:47


Я – Али / I Am Ali (2014) HDRip

«Борец - легендарный боксер. Брат - сторонник гражданских прав.
Любитель - чемпион людей. Отец - семьянин»

Русское название: Я – Али
Оригинальное название: I Am Ali
Режиссер / Телекомпания: Клэр Люинс / Fisheye Films, Passion Pictures
Страна: США, Великобритания
Год выпуска: 2014
Жанр: Документальный, биография, спорт

Описание:
Легенда мирового бокса. Гений, превративший борьбу на ринге в настоящее искусство. Стратег, в равной степени наделенный физической силой и остротой ума. Чемпион XVII Летних Олимпийских игр, абсолютный чемпион мира в тяжелом весе, многократный обладатель звания «Боксер года», «Спортсмен века» по версии ВВС… Все это он – Мохаммед Али, урожденный Кассиус Марселлус Клей. Но не только титулы и награды сделали этого человека по-настоящему великим: его упорство и стремление к самосовершенствованию, его трогательные отношения с семьей, благотворительность, которой он занимался после завершения спортивной карьеры, заслуживают искреннего восхищения. Документальный фильм, снятый кинематографистами Британии и Англии, содержит уникальные кадры хроники, редкие записи и свежие интервью с теми, кто имеет непосредственное отношение к Мохаммеду Али. Это и его бизнес-менеджер, и первый тренер, и родной брат, и многие другие, с кем судьба сводила Али. Все они поделятся своими историями, открывающими все новые и новые подробности о жизни легенды.

Актеры: Мухаммед Али мл., Мухаммед Али, Рахаман Али, Джим Браун, Карл Фишер, Джордж Формен, Марвис Фрэзиер, Кен Джонс, Том Джонс

Перевод: Многоголосый закадровый (профессиональный)

Продолжительность: 01:51:32

Видеокодек: XviD
Битрейт видео: ~1850 Kбит/с
Размер кадра: 720 x 400
Качество видео: HDRip
Аудио (русский): AC-3, 48.0 KHz, 6 ch, 384 Kbps, CBR
Аудио (английский): AC-3, 48.0 KHz, 6 ch, 384 Kbps, CBR
Формат : AVI
Формат/Информация : Audio Video Interleave
Профиль формата : OpenDML
Размер файла : 2,06 Гбайт
Продолжительность : 1 ч. 51 м.
Общий поток : 2638 Кбит/сек
Программа кодирования : VirtualDubMod 1.5.10.3 | www.virtualdub-fr.org || (build 2550/release)
Библиотека кодирования : VirtualDubMod build 2550/release

Видео
Идентификатор : 0
Формат : MPEG-4 Visual
Профиль формата : Advanced [email protected]
Параметр BVOP формата : 2
Параметр QPel формата : Нет
Параметр GMC формата : Без точки перехода
Параметр матрицы формата : Default (MPEG)
Идентификатор кодека : XVID
Идентификатор кодека/Подсказка : XviD
Продолжительность : 1 ч. 51 м.
Битрейт : 1852 Кбит/сек
Ширина : 720 пикселей
Высота : 400 пикселей
Соотношение сторон : 16:9
Частота кадров : 23,976 кадра/сек
Цветовое пространство : YUV
Субдискретизация насыщенности : 4:2:0
Битовая глубина : 8 бит
Тип развёртки : Прогрессивная
Метод сжатия : С потерями
Бит/(Пиксели*Кадры) : 0.268
Размер потока : 1,44 Гбайт (70%)
Библиотека кодирования : XviD 1.2.1 (UTC 2008-12-04)

Аудио #1
Идентификатор : 1
Формат : AC-3
Формат/Информация : Audio Coding 3
Расширение режима : CM (complete main)
Параметр Endianness формата : Big
Идентификатор кодека : 2000
Продолжительность : 1 ч. 51 м.
Вид битрейта : Постоянный
Битрейт : 384 Кбит/сек
Каналы : 6 каналов
Расположение каналов : Front: L C R, Side: L R, LFE
Частота : 48,0 КГц
Битовая глубина : 16 бит
Метод сжатия : С потерями
Размер потока : 306 Мбайт (15%)
Выравнивание : Разделение по промежуткам
Продолжительность промежутка : 42 мс. (1,00 видеокадр)
Время предзагрузки промежутка : 500 мс.

Аудио #2
Идентификатор : 2
Формат : AC-3
Формат/Информация : Audio Coding 3
Расширение режима : CM (complete main)
Параметр Endianness формата : Big
Идентификатор кодека : 2000
Продолжительность : 1 ч. 51 м.
Вид битрейта : Постоянный
Битрейт : 384 Кбит/сек
Каналы : 6 каналов
Расположение каналов : Front: L C R, Side: L R, LFE
Частота : 48,0 КГц
Битовая глубина : 16 бит
Метод сжатия : С потерями
Размер потока : 306 Мбайт (15%)
Выравнивание : Разделение по промежуткам
Продолжительность промежутка : 42 мс. (1,00 видеокадр)
Время предзагрузки промежутка : 500 мс.
Скриншоты:

Время раздачи: 24/7. До первых 5 скачавших.
Я – Али на NoNaMe Club
   
Торрент: Зарегистрирован [10 янв 2018, 17:35] Скачать торрент Магнет ссылка
Скачать торрент
[ Размер 11.03 КБ / Просмотров 0 ]
Статус:
Проверен
 
.torrent скачан: 0 раз
Размер: 2.06 ГБ (2 206 666 752 байт)
   Стать Автором раздачи
 
 
Цитата

Вернуться в Личности

Кто сейчас на конференции

Сейчас эту тему просматривают: нет зарегистрированных пользователей и гости: 1