Вадим Гордеев. Позывной «Сирота» (2017) SATRip

 Статистика раздачи 
Размер: 562.87 МБ   |  Зарегистрирован: 10 янв 2018, 17:34   |   .torrent скачан: 56 раз
Сидеров: 2  [ 0 байт/сек ]     Личеров: 2  [ 0 байт/сек ]  
  
Аватара пользователя
 
Раздал: 0 байт
Скачал: 0 байт
Ратио: Inf.
Сообщения: 111963
Стаж: 7 лет 3 месяца 7 дней
Откуда: Rossiya

Вадим Гордеев. Позывной «Сирота» (2017) SATRip

Телекомпания: Россия
Жанр: Документальный, спецподразделения, биография

Описание:
Фильм о Герое России, майоре управления «В» Центра специальных операций ФСБ Вадиме Гордееве, геройски погибшем в боестолкновении с террористами в Чечне в 2003 году при ликвидации полевого командира боевиков в операции по освобождению заложников. Герой фильма принимал участие в ликвидации таких руководителей террористов, как Басаев, Гелаев, Масхадов, лично захватывал Радуева.

Релиз от: alf62
Продолжительность: 00:39:19
Качество видео: SATRip

Видео: Xvid, 720x400, ~1800 Kbps
Аудио: AC3, 2 ch, 192 Kbps
Код: Выделить всё
Вадим.Гордеев.Позывной.«Сирота».2017.XviD.SATRip.alf62.avi
Формат                                   : AVI
Формат/Информация                        : Audio Video Interleave
Размер файла                             : 563 Мбайт
Продолжительность                        : 39 м.
Общий поток                              : 2002 Кбит/сек
Программа кодирования                    : VirtualDubMod 1.5.10.3 | [url=http://www.virtualdub-fr.org]www.virtualdub-fr.org[/url] || (build 2550/release)
Библиотека кодирования                   : VirtualDubMod build 2550/release

Видео
Идентификатор                            : 0
Формат                                   : MPEG-4 Visual
Профиль формата                          : Advanced [email protected]
Параметр BVOP формата                    : 2
Параметр QPel формата                    : Нет
Параметр GMC формата                     : Без точки перехода
Параметр матрицы формата                 : Default (MPEG)
Идентификатор кодека                     : XVID
Идентификатор кодека/Подсказка           : XviD
Продолжительность                        : 39 м.
Битрейт                                  : 1800 Кбит/сек
Ширина                                   : 720 пикселей
Высота                                   : 400 пикселей
Соотношение сторон                       : 16:9
Частота кадров                           : 25,000 кадров/сек
Цветовое пространство                    : YUV
Субдискретизация насыщенности            : 4:2:0
Битовая глубина                          : 8 бит
Тип развёртки                            : Прогрессивная
Метод сжатия                             : С потерями
Бит/(Пиксели*Кадры)                      : 0.250
Размер потока                            : 506 Мбайт (90%)
Библиотека кодирования                   : XviD 73

Аудио
Идентификатор                            : 1
Формат                                   : AC-3
Формат/Информация                        : Audio Coding 3
Расширение режима                        : CM (complete main)
Параметр Endianness формата              : Big
Идентификатор кодека                     : 2000
Продолжительность                        : 39 м.
Вид битрейта                             : Постоянный
Битрейт                                  : 192 Кбит/сек
Каналы                                   : 2 канала
Расположение каналов                     : Front: L R
Частота                                  : 48,0 КГц
Битовая глубина                          : 16 бит
Метод сжатия                             : С потерями
Размер потока                            : 54,0 Мбайт (10%)
Выравнивание                             : Разделение по промежуткам
Продолжительность промежутка             : 40  мс. (1,00 видеокадр)
Время предзагрузки промежутка            : 500  мс.

Скриншоты:



Время раздачи: до появления первых 3-5 скачавших
   
Торрент: Зарегистрирован [10 янв 2018, 17:34] Скачать торрент Магнет ссылка
Скачать торрент
[ Размер 11.95 КБ / Просмотров 10 ]
Статус:
Проверен
 
.torrent скачан: 56 раз
Размер: 562.87 МБ (590 209 024 байт)
   Стать Автором раздачи
 
 
Шапка детская "Красная шапочка". Детские шапки для бани. Изделие для защиты волос и кожи головы от воздействия высокой температуры в бане и сауне, декорированная цветными нитями
Цитата
  • Похожие торренты
    Ответы
    Просмотры
    Последнее сообщение

Вернуться в Личности

Кто сейчас на конференции

Сейчас эту тему просматривают: нет зарегистрированных пользователей и гости: 1