План Маршалла: похищение Европы? (2017) DVB

 Статистика раздачи 
Размер: 541.28 МБ   |  Зарегистрирован: 10 янв 2018, 17:34   |   .torrent скачан: 0 раз
Сидеров: 11  [ 0 байт/сек ]     Личеров: 0  [ 0 байт/сек ]  
  
Аватара пользователя
 
Раздал: 0 байт
Скачал: 0 байт
Ратио: Inf.
Сообщения: 184681
Стаж: 7 лет 9 месяцев 27 дней
Откуда: Rossiya

План Маршалла: похищение Европы? (2017) DVB

Телекомпания: Россия / ГолдМедиум
Жанр: Документальный, История, Биография

Участники: Карл Моркель, Иеромонах Киприан, Гюнтер Дюринг

Описание:
Теперь, когда актуализирован вопрос о взаимоотношениях США и Европы, полезно вспомнить об исторических вехах этих взаимоотношений, соприкосновений и сотрудничества. Одной из таких вех, несомненно, является план послевоенного восстановления, известный как "План Маршалла", предложенный госсекретарем США Джорджем Маршаллом, принятый большинством участвовавших во Второй мировой войне европейских стран и реализовывавшийся с 1948 года. Чем он был для Европы – экономическим спасательным кругом, позволившим сохранить миллионы жизней, или хитрым заокеанским проектом с целью поставить Европу в зависимость от США? В чем конкретно состоял план, и как шла его реализация? И что за человек был его автор? Почему Маршалл так надеялся на присоединение к своему плану сталинского СССР?

Продолжительность: 00:38:51
Качество видео: DVB
Язык субтитров: Русский
Вид субтитров: Вшитые

Видео: MPEG-2, 704х576@768x576, ~1721 kbps
Аудио: MP2, 2 ch, 192 kb/s
Код: Выделить всё
Общее
Идентификатор                            : 16 (0x10)
Полное имя                               : План Маршалла_похищение Европы.ts
Формат                                   : MPEG-TS
Размер файла                             : 541 Мбайт
Продолжительность                        : 38 м. 52 с.
Режим общего битрейта                    : Переменный
Общий поток                              : 1947 Кбит/сек

Видео
Идентификатор                            : 1103 (0x44F)
Идентификатор меню                       : 103 (0x67)
Формат                                   : MPEG Video
Версия формата                           : Version 2
Профиль формата                          : Main@Main
Настройки формата                        : CustomMatrix / BVOP
Параметр BVOP формата                    : Да
Параметр матрицы формата                 : Выборочная
Параметр GOP формата                     : Variable
Структура изображения                    : Frame
Идентификатор кодека                     : 2
Продолжительность                        : 38 м. 52 с.
Вид битрейта                             : Переменный
Битрейт                                  : 1721 Кбит/сек
Максимальный битрейт                     : 15,0 Мбит/сек
Ширина                                   : 704 пикселя
Высота                                   : 576 пикселей
Соотношение сторон                       : 4:3
Частота кадров                           : 25,000 кадров/сек
Стандарт вещания                         : PAL
Цветовое пространство                    : YUV
Субдискретизация насыщенности            : 4:2:0
Битовая глубина                          : 8 бит
Тип развёртки                            : Чересстрочная
Порядок развёртки                        : Верхнее поле первое
Метод сжатия                             : С потерями
Бит/(Пиксели*Кадры)                      : 0.170
Размер потока                            : 479 Мбайт (88%)

Аудио
Идентификатор                            : 2103 (0x837)
Идентификатор меню                       : 103 (0x67)
Формат                                   : MPEG Audio
Версия формата                           : Version 1
Профиль формата                          : Layer 2
Идентификатор кодека                     : 4
Продолжительность                        : 38 м. 52 с.
Вид битрейта                             : Постоянный
Битрейт                                  : 128 Кбит/сек
Каналы                                   : 2 канала
Частота                                  : 48,0 КГц
Метод сжатия                             : С потерями
Задержка видео                           : 66 мс.
Размер потока                            : 35,6 Мбайт (7%)
Язык                                     : std
Язык, дополнительно                      : Clean effects

Прочее #1
Идентификатор                            : 35 (0x23)-100
Идентификатор меню                       : 103 (0x67)
Формат                                   : Teletext

Прочее #2
Идентификатор                            : 35 (0x23)-888
Идентификатор меню                       : 103 (0x67)
Формат                                   : Teletext
Язык, дополнительно                      : Additional information page

Скриншоты:




Время раздачи: Сб-Вс с 09:00 до 23:30 (до появления первых 3-5 скачавших)
Не забывайте говорить Спасибо. Не уходите с раздачи!   
Торрент: Зарегистрирован [10 янв 2018, 17:34] Для скачивания .torrent
необходима регистрация
Или скачать с помощью
MediaGet
Статус:
Проверен
 
.torrent скачан: 0 раз
Хэш: 493767636e2ed72fef66b71f2a86f304fbee7ba2
Размер: 541.28 МБ (567 578 392 байт)
   Стать Автором раздачи
   
Цитата

Вернуться в Личности

Кто сейчас на конференции

Сейчас эту тему просматривают: нет зарегистрированных пользователей и гости: 1