Диана: История ее словами (Утерянные кадры) / Diana: In Her Own Words (2017) SATRip

 Статистика раздачи 
Размер: 1.59 ГБ   |  Зарегистрирован: 10 янв 2018, 17:34   |   .torrent скачан: 1 раз
Сидеров: 3  [ 0 байт/сек ]     Личеров: 2  [ 0 байт/сек ]  
  
Аватара пользователя
 
Раздал: 0 байт
Скачал: 0 байт
Ратио: Inf.
Сообщения: 160606
Стаж: 7 лет 6 месяцев 4 дня
Откуда: Rossiya

Диана: История ее словами (Утерянные кадры) / Diana: In Her Own Words (2017) SATRip

Телекомпания: Великобритания, National Geographic
Жанр: Документальный, биография, история

Режиссер: Том Дженнингс

Описание:
В 1991 году в люди не представляли, что брак Дианы, принцессы Уэльской с Его Королевским Высочеством принцем Уэльским был на грани разрыва. Знакомство широкой публики с уникальными аудиопризнаниями Принцессы, которые никогда раньше не предавались гласности.
Впервые история принцессы Дианы рассказывается от первого лица. Фильм основан на уникальных записях ее личных бесед с педагогом по ораторскому искусству, которые только сейчас, спустя 20 лет после ее смерти, стали достоянием общественности.
Это фильм о народной принцессе и сказке, в которую все хотели поверить, но которой не суждено было сбыться. Любовь, измена, предательство - принцесса Диана впервые предстает перед нами такой, какая она была на самом деле.

http://www.imdb.com/title/tt7188868/?ref_=plg_rt_1

Релиз от: alf62
Продолжительность: 01:53:28
Качество видео: SATRip
Перевод: Двуголосый закадровый, профессиональный

Видео: Xvid, 720x400, ~1800 Kbps
Аудио: AC3, 2 ch, 192 Kbps
Код: Выделить всё
Диана.Утерянные.кадры.2017.SATPip.alf62.avi
Формат                                   : AVI
Формат/Информация                        : Audio Video Interleave
Размер файла                             : 1,59 Гбайт
Продолжительность                        : 1 ч. 53 м.
Общий поток                              : 2002 Кбит/сек
Программа кодирования                    : VirtualDubMod 1.5.10.3 | [url=http://www.virtualdub-fr.org]www.virtualdub-fr.org[/url] || (build 2550/release)
Библиотека кодирования                   : VirtualDubMod build 2550/release

Видео
Идентификатор                            : 0
Формат                                   : MPEG-4 Visual
Профиль формата                          : Advanced [email protected]
Параметр BVOP формата                    : 2
Параметр QPel формата                    : Нет
Параметр GMC формата                     : Без точки перехода
Параметр матрицы формата                 : Default (MPEG)
Идентификатор кодека                     : XVID
Идентификатор кодека/Подсказка           : XviD
Продолжительность                        : 1 ч. 53 м.
Битрейт                                  : 1800 Кбит/сек
Ширина                                   : 720 пикселей
Высота                                   : 400 пикселей
Соотношение сторон                       : 16:9
Частота кадров                           : 25,000 кадров/сек
Цветовое пространство                    : YUV
Субдискретизация насыщенности            : 4:2:0
Битовая глубина                          : 8 бит
Тип развёртки                            : Прогрессивная
Метод сжатия                             : С потерями
Бит/(Пиксели*Кадры)                      : 0.250
Размер потока                            : 1,43 Гбайт (90%)
Библиотека кодирования                   : XviD 73

Аудио
Идентификатор                            : 1
Формат                                   : AC-3
Формат/Информация                        : Audio Coding 3
Расширение режима                        : CM (complete main)
Параметр Endianness формата              : Big
Идентификатор кодека                     : 2000
Продолжительность                        : 1 ч. 53 м.
Вид битрейта                             : Постоянный
Битрейт                                  : 192 Кбит/сек
Каналы                                   : 2 канала
Расположение каналов                     : Front: L R
Частота                                  : 48,0 КГц
Битовая глубина                          : 16 бит
Метод сжатия                             : С потерями
Размер потока                            : 156 Мбайт (10%)
Выравнивание                             : Разделение по промежуткам
Продолжительность промежутка             : 40  мс. (1,00 видеокадр)
Время предзагрузки промежутка            : 500  мс.

Скриншоты:





Время раздачи: до появления первых 3-5 скачавших
   
Торрент: Зарегистрирован [10 янв 2018, 17:34] Скачать торрент Магнет ссылка
Скачать торрент
[ Размер 16.87 КБ / Просмотров 18 ]
Статус:
Проверен
 
.torrent скачан: 1 раз
Размер: 1.59 ГБ (1 703 241 728 байт)
   Стать Автором раздачи
 
 
Цитата
  • Похожие торренты
    Ответы
    Просмотры
    Последнее сообщение

Вернуться в Личности

Кто сейчас на конференции

Сейчас эту тему просматривают: нет зарегистрированных пользователей и гости: 1