Ева Браун: Жизнь и смерть с фюрером / Eva Braun: Life and Death with the Fuhrer (2015) HDTVRip (2 серии из 2)

 Статистика раздачи 
Размер: 1.33 ГБ   |  Зарегистрирован: 10 янв 2018, 17:34   |   .torrent скачан: 7 раз
Сидеров: 2  [ 0 байт/сек ]     Личеров: 0  [ 0 байт/сек ]  
  
Аватара пользователя
 
Раздал: 0 байт
Скачал: 0 байт
Ратио: Inf.
Сообщения: 111963
Стаж: 7 лет 3 месяца 9 дней
Откуда: Rossiya

Ева Браун: Жизнь и смерть с фюрером / Eva Braun: Life and Death with the Fuhrer (2015) HDTVRip (2 серии из 2)

Телекомпания: Германия, SPIEGEL TV GmbH
Жанр: Документальный, война, история, биография

Режиссер: Михаэль Клофт

Описание:
По словам ее биографа, за преувеличенным оптимизмом Евы Браун стояла решительная женщина, которая до самой смерти шла к своей цели. Она свела счеты с жизнью в бункере под рейхсканцелярией в Берлине вместе с Адольфом Гитлером 30 апреля 1945 года. За день до этого Ева Браун, которая много лет была его любовницей, вышла за Гитлера замуж.

Релиз от: alf62
Продолжительность: 2 х ~ 00:45:30
Качество видео: HDTVRip
Перевод: Дублированный

Видео: Xvid, 720x400, ~1900 Kbps
Аудио: AC3, 2 ch, 192 Kbps
Код: Выделить всё
Ева.Браун.Жизнь.и.смерть.с.фюрером.(2.серии).2015.XviD.HDTVRip.alf62\Ева.Браун.Жизнь.и.смерть.с.фюрером.(1.серия).2015.XviD.HDTVRip.alf62.avi
Формат                                   : AVI
Формат/Информация                        : Audio Video Interleave
Размер файла                             : 676 Мбайт
Продолжительность                        : 44 м.
Общий поток                              : 2102 Кбит/сек
Программа кодирования                    : VirtualDubMod 1.5.10.3 | [url=http://www.virtualdub-fr.org]www.virtualdub-fr.org[/url] || (build 2550/release)
Библиотека кодирования                   : VirtualDubMod build 2550/release

Видео
Идентификатор                            : 0
Формат                                   : MPEG-4 Visual
Профиль формата                          : Advanced [email protected]
Параметр BVOP формата                    : 2
Параметр QPel формата                    : Нет
Параметр GMC формата                     : Без точки перехода
Параметр матрицы формата                 : Default (MPEG)
Идентификатор кодека                     : XVID
Идентификатор кодека/Подсказка           : XviD
Продолжительность                        : 44 м.
Битрейт                                  : 1900 Кбит/сек
Ширина                                   : 720 пикселей
Высота                                   : 400 пикселей
Соотношение сторон                       : 16:9
Частота кадров                           : 25,000 кадров/сек
Цветовое пространство                    : YUV
Субдискретизация насыщенности            : 4:2:0
Битовая глубина                          : 8 бит
Тип развёртки                            : Прогрессивная
Метод сжатия                             : С потерями
Бит/(Пиксели*Кадры)                      : 0.264
Размер потока                            : 611 Мбайт (90%)
Библиотека кодирования                   : XviD 73

Аудио
Идентификатор                            : 1
Формат                                   : AC-3
Формат/Информация                        : Audio Coding 3
Расширение режима                        : CM (complete main)
Параметр Endianness формата              : Big
Идентификатор кодека                     : 2000
Продолжительность                        : 44 м.
Вид битрейта                             : Постоянный
Битрейт                                  : 192 Кбит/сек
Каналы                                   : 2 канала
Расположение каналов                     : Front: L R
Частота                                  : 48,0 КГц
Битовая глубина                          : 16 бит
Метод сжатия                             : С потерями
Размер потока                            : 61,8 Мбайт (9%)
Выравнивание                             : Разделение по промежуткам
Продолжительность промежутка             : 40  мс. (1,00 видеокадр)
Время предзагрузки промежутка            : 500  мс.

Скриншоты:





Время раздачи: до появления первых 3-5 скачавших
   
Торрент: Зарегистрирован [10 янв 2018, 17:34] Скачать торрент Магнет ссылка
Скачать торрент
[ Размер 14.64 КБ / Просмотров 2 ]
Статус:
Проверен
 
.torrent скачан: 7 раз
Размер: 1.33 ГБ (1 430 167 552 байт)
   Стать Автором раздачи
 
 
Шапка детская "Красная шапочка". Детские шапки для бани. Изделие для защиты волос и кожи головы от воздействия высокой температуры в бане и сауне, декорированная цветными нитями
Цитата
  • Похожие торренты
    Ответы
    Просмотры
    Последнее сообщение

Вернуться в Личности

Кто сейчас на конференции

Сейчас эту тему просматривают: нет зарегистрированных пользователей и гости: 1