Великие мечтатели / Великі мрійники (2011-2014) HDTVRip [H.264/720p-LQ] (Серии 1-5)

 Статистика раздачи 
Размер: 8.77 ГБ   |  Зарегистрирован: 10 янв 2018, 17:34   |   .torrent скачан: 0 раз
Сидеров: 2  [ 0 байт/сек ]     Личеров: 0  [ 0 байт/сек ]  
  
Аватара пользователя
 
Раздал: 0 байт
Скачал: 0 байт
Ратио: Inf.
Сообщения: 182851
Стаж: 7 лет 8 месяцев
Откуда: Rossiya

Великие мечтатели / Великі мрійники (2011-2014) HDTVRip [H.264/720p-LQ] (Серии 1-5)

Производство: Украина, FILM.UA и Signal RED
Жанр: Документальный цикл, игровой, биографический, история

Режиссер: Тарас Шаповал, Игорь Грицик, Миша Костров, Михаил Херсонский

Описание:
Проект «Великие мечтатели» объединяет истории жизни и творчества выдающихся первооткрывателей в сферах науки и искусства. Среди героев фильмов - Никола Тесла, Жюль Верн, Леонардо да Винчи, Константин Циолковский, Альфред Нобель, Архимед и другие всемирно известные имена.

Релиз от: рип skorpionN
Продолжительность: серии по ~00:45:00
Качество видео: HDTVRip
Язык озвучки: русский
Субтитры: отсутствуют

Видео: AVC/H.264, 1280 x 720, ~5000 Kbps
Аудио: AC3, 2 ch, 192 Kbps
Код: Выделить всё
Общее
Уникальный идентификатор                 : 228495349933198799134960591053641987258 (0xABE69A8964BDCB3BA0E09BC81077B4BA)
Полное имя                               : F:\КИНО\Great dreamers_720p\01_Archimedes_The master of numbers.mkv
Формат                                   : Matroska
Версия формата                           : Version 4 / Version 2
Размер файла                             : 1,55 Гбайт
Продолжительность                        : 42 м. 50 с.
Режим общего битрейта                    : Переменный
Общий поток                              : 5184 Кбит/сек
Дата кодирования                         : UTC 2017-10-28 12:15:43
Программа кодирования                    : mkvmerge v6.9.1 ('Blue Panther') 64bit built on Apr 18 2014 18:23:38
Библиотека кодирования                   : libebml v1.3.0 + libmatroska v1.4.1

Видео
Идентификатор                            : 1
Формат                                   : AVC
Формат/Информация                        : Advanced Video Codec
Профиль формата                          : High@L4
Настройки формата                        : CABAC / 3 Ref Frames
Параметр CABAC формата                   : Да
Параметр RefFrames формата               : 3 кадра
Идентификатор кодека                     : V_MPEG4/ISO/AVC
Продолжительность                        : 42 м. 50 с.
Вид битрейта                             : Переменный
Битрейт                                  : 5000 Кбит/сек
Максимальный битрейт                     : 8000 Кбит/сек
Ширина                                   : 1280 пикселей
Высота                                   : 720 пикселей
Соотношение сторон                       : 16:9
Режим частоты кадров                     : Постоянный
Частота кадров                           : 25,000 кадров/сек
Стандарт вещания                         : NTSC
Цветовое пространство                    : YUV
Субдискретизация насыщенности            : 4:2:0
Битовая глубина                          : 8 бит
Тип развёртки                            : Прогрессивная
Бит/(Пиксели*Кадры)                      : 0.217
Размер потока                            : 1,46 Гбайт (94%)
Библиотека кодирования                   : x264 core 114
Настройки программы                      : cabac=1 / ref=3 / deblock=1:0:0 / analyse=0x3:0x113 / me=hex / subme=7 / psy=1 / psy_rd=1.00:0.00 / mixed_ref=1 / me_range=16 / chroma_me=1 / trellis=1 / 8x8dct=1 / cqm=2 / deadzone=21,11 / fast_pskip=1 / chroma_qp_offset=-4 / threads=6 / sliced_threads=0 / slices=1 / nr=0 / decimate=1 / interlaced=0 / constrained_intra=0 / bframes=3 / b_pyramid=0 / b_adapt=1 / b_bias=0 / direct=1 / weightb=1 / open_gop=0 / weightp=2 / keyint=250 / keyint_min=25 / scenecut=40 / intra_refresh=0 / rc_lookahead=40 / rc=2pass / mbtree=1 / bitrate=5000 / ratetol=1.0 / qcomp=0.60 / qpmin=5 / qpmax=69 / qpstep=4 / cplxblur=20.0 / qblur=0.5 / vbv_maxrate=8000 / vbv_bufsize=7995 / nal_hrd=vbr / ip_ratio=1.40 / aq=1:1.00
Default                                  : Да
Forced                                   : Нет
Цветовой диапазон                        : Limited
Основные цвета                           : BT.709
Характеристики трансфера                 : BT.709
Коэффициенты матрицы                     : BT.709

Аудио
Идентификатор                            : 2
Формат                                   : AC-3
Формат/Информация                        : Audio Coding 3
Параметр Endianness формата              : Big
Идентификатор кодека                     : A_AC3
Продолжительность                        : 42 м. 50 с.
Вид битрейта                             : Постоянный
Битрейт                                  : 192 Кбит/сек
Каналы                                   : 2 канала
Расположение каналов                     : Front: L R
Частота                                  : 48,0 КГц
Частота кадров                           : 31,250 кадров/сек (1536 SPF)
Битовая глубина                          : 16 бит
Метод сжатия                             : С потерями
Размер потока                            : 58,8 Мбайт (4%)
ServiceKind/String                       : Complete Main
Default                                  : Да
Forced                                   : Нет

Общее
Уникальный идентификатор                 : 232716119658261646603405703754312249999 (0xAF137E8D029C8DE38A4A1D12851EF28F)
Полное имя                               : F:\КИНО\Great dreamers_720p\02_ Leonardo Da Vinci.mkv
Формат                                   : Matroska
Версия формата                           : Version 4 / Version 2
Размер файла                             : 1,85 Гбайт
Продолжительность                        : 53 м. 29 с.
Режим общего битрейта                    : Постоянный
Общий поток                              : 4962 Кбит/сек
Дата кодирования                         : UTC 2017-10-28 12:19:17
Программа кодирования                    : mkvmerge v6.9.1 ('Blue Panther') 64bit built on Apr 18 2014 18:23:38
Библиотека кодирования                   : libebml v1.3.0 + libmatroska v1.4.1

Видео
Идентификатор                            : 1
Формат                                   : AVC
Формат/Информация                        : Advanced Video Codec
Профиль формата                          : High@L4
Настройки формата                        : CABAC / 3 Ref Frames
Параметр CABAC формата                   : Да
Параметр RefFrames формата               : 3 кадра
Идентификатор кодека                     : V_MPEG4/ISO/AVC
Продолжительность                        : 53 м. 29 с.
Вид битрейта                             : Постоянный
Битрейт                                  : 4671 Кбит/сек
Номинальный битрейт                      : 5000 Кбит/сек / 5000 Кбит/сек
Ширина                                   : 1280 пикселей
Высота                                   : 720 пикселей
Соотношение сторон                       : 16:9
Режим частоты кадров                     : Постоянный
Частота кадров                           : 25,000 кадров/сек
Стандарт вещания                         : NTSC
Цветовое пространство                    : YUV
Субдискретизация насыщенности            : 4:2:0
Битовая глубина                          : 8 бит
Тип развёртки                            : Прогрессивная
Бит/(Пиксели*Кадры)                      : 0.203
Размер потока                            : 1,74 Гбайт (94%)
Библиотека кодирования                   : x264 core 114
Настройки программы                      : cabac=1 / ref=3 / deblock=1:0:0 / analyse=0x3:0x113 / me=hex / subme=7 / psy=1 / psy_rd=1.00:0.00 / mixed_ref=1 / me_range=16 / chroma_me=1 / trellis=1 / 8x8dct=1 / cqm=2 / deadzone=21,11 / fast_pskip=1 / chroma_qp_offset=-2 / threads=6 / sliced_threads=0 / slices=1 / nr=0 / decimate=1 / interlaced=0 / constrained_intra=0 / bframes=3 / b_pyramid=0 / b_adapt=1 / b_bias=0 / direct=1 / weightb=1 / open_gop=0 / weightp=2 / keyint=250 / keyint_min=25 / scenecut=40 / intra_refresh=0 / rc_lookahead=40 / rc=cbr / mbtree=1 / bitrate=5000 / ratetol=1.0 / qcomp=0.60 / qpmin=3 / qpmax=69 / qpstep=4 / vbv_maxrate=5000 / vbv_bufsize=4997 / nal_hrd=cbr / ip_ratio=1.40 / aq=1:1.00
Default                                  : Да
Forced                                   : Нет
Цветовой диапазон                        : Limited
Основные цвета                           : BT.709
Характеристики трансфера                 : BT.709
Коэффициенты матрицы                     : BT.709

Аудио
Идентификатор                            : 2
Формат                                   : AC-3
Формат/Информация                        : Audio Coding 3
Параметр Endianness формата              : Big
Идентификатор кодека                     : A_AC3
Продолжительность                        : 53 м. 29 с.
Вид битрейта                             : Постоянный
Битрейт                                  : 192 Кбит/сек
Каналы                                   : 2 канала
Расположение каналов                     : Front: L R
Частота                                  : 48,0 КГц
Частота кадров                           : 31,250 кадров/сек (1536 SPF)
Битовая глубина                          : 16 бит
Метод сжатия                             : С потерями
Размер потока                            : 73,4 Мбайт (4%)
ServiceKind/String                       : Complete Main
Default                                  : Да
Forced                                   : Нет

Общее
Уникальный идентификатор                 : 225749560845162226135757291415782167767 (0xA9D5C8AEBEB6483DB719C31B3E2214D7)
Полное имя                               : F:\КИНО\Great dreamers_720p\03_Free energy of Tesla.mkv
Формат                                   : Matroska
Версия формата                           : Version 4 / Version 2
Размер файла                             : 1,91 Гбайт
Продолжительность                        : 52 м. 45 с.
Режим общего битрейта                    : Переменный
Общий поток                              : 5190 Кбит/сек
Дата кодирования                         : UTC 2017-10-28 12:21:26
Программа кодирования                    : mkvmerge v6.9.1 ('Blue Panther') 64bit built on Apr 18 2014 18:23:38
Библиотека кодирования                   : libebml v1.3.0 + libmatroska v1.4.1

Видео
Идентификатор                            : 1
Формат                                   : AVC
Формат/Информация                        : Advanced Video Codec
Профиль формата                          : High@L4
Настройки формата                        : CABAC / 3 Ref Frames
Параметр CABAC формата                   : Да
Параметр RefFrames формата               : 3 кадра
Идентификатор кодека                     : V_MPEG4/ISO/AVC
Продолжительность                        : 52 м. 46 с.
Вид битрейта                             : Переменный
Битрейт                                  : 5000 Кбит/сек
Максимальный битрейт                     : 8000 Кбит/сек
Ширина                                   : 1280 пикселей
Высота                                   : 720 пикселей
Соотношение сторон                       : 16:9
Режим частоты кадров                     : Постоянный
Частота кадров                           : 25,000 кадров/сек
Стандарт вещания                         : NTSC
Цветовое пространство                    : YUV
Субдискретизация насыщенности            : 4:2:0
Битовая глубина                          : 8 бит
Тип развёртки                            : Прогрессивная
Бит/(Пиксели*Кадры)                      : 0.217
Размер потока                            : 1,80 Гбайт (94%)
Библиотека кодирования                   : x264 core 114
Настройки программы                      : cabac=1 / ref=3 / deblock=1:0:0 / analyse=0x3:0x113 / me=hex / subme=7 / psy=1 / psy_rd=1.00:0.00 / mixed_ref=1 / me_range=16 / chroma_me=1 / trellis=1 / 8x8dct=1 / cqm=2 / deadzone=21,11 / fast_pskip=1 / chroma_qp_offset=-4 / threads=6 / sliced_threads=0 / slices=1 / nr=0 / decimate=1 / interlaced=0 / constrained_intra=0 / bframes=3 / b_pyramid=0 / b_adapt=1 / b_bias=0 / direct=1 / weightb=1 / open_gop=0 / weightp=2 / keyint=250 / keyint_min=25 / scenecut=40 / intra_refresh=0 / rc_lookahead=40 / rc=2pass / mbtree=1 / bitrate=5000 / ratetol=1.0 / qcomp=0.60 / qpmin=5 / qpmax=69 / qpstep=4 / cplxblur=20.0 / qblur=0.5 / vbv_maxrate=8000 / vbv_bufsize=7995 / nal_hrd=vbr / ip_ratio=1.40 / aq=1:1.00
Default                                  : Да
Forced                                   : Нет
Цветовой диапазон                        : Limited
Основные цвета                           : BT.709
Характеристики трансфера                 : BT.709
Коэффициенты матрицы                     : BT.709

Аудио
Идентификатор                            : 2
Формат                                   : AC-3
Формат/Информация                        : Audio Coding 3
Параметр Endianness формата              : Big
Идентификатор кодека                     : A_AC3
Продолжительность                        : 52 м. 45 с.
Вид битрейта                             : Постоянный
Битрейт                                  : 192 Кбит/сек
Каналы                                   : 2 канала
Расположение каналов                     : Front: L R
Частота                                  : 48,0 КГц
Частота кадров                           : 31,250 кадров/сек (1536 SPF)
Битовая глубина                          : 16 бит
Метод сжатия                             : С потерями
Размер потока                            : 72,5 Мбайт (4%)
ServiceKind/String                       : Complete Main
Default                                  : Да
Forced                                   : Нет

Общее
Уникальный идентификатор                 : 254258638059338155274469688073764387060 (0xBF486EB61375E419AD8B0D6F05DEB8F4)
Полное имя                               : F:\КИНО\Great dreamers_720p\04_Tsiolkovsky’s Worlds of miracle.mkv
Формат                                   : Matroska
Версия формата                           : Version 4 / Version 2
Размер файла                             : 1,60 Гбайт
Продолжительность                        : 43 м. 58 с.
Режим общего битрейта                    : Переменный
Общий поток                              : 5194 Кбит/сек
Дата кодирования                         : UTC 2017-10-28 12:23:40
Программа кодирования                    : mkvmerge v6.9.1 ('Blue Panther') 64bit built on Apr 18 2014 18:23:38
Библиотека кодирования                   : libebml v1.3.0 + libmatroska v1.4.1

Видео
Идентификатор                            : 1
Формат                                   : AVC
Формат/Информация                        : Advanced Video Codec
Профиль формата                          : High@L4
Настройки формата                        : CABAC / 3 Ref Frames
Параметр CABAC формата                   : Да
Параметр RefFrames формата               : 3 кадра
Идентификатор кодека                     : V_MPEG4/ISO/AVC
Продолжительность                        : 43 м. 58 с.
Вид битрейта                             : Переменный
Битрейт                                  : 5000 Кбит/сек
Максимальный битрейт                     : 25,0 Мбит/сек
Ширина                                   : 1280 пикселей
Высота                                   : 720 пикселей
Соотношение сторон                       : 16:9
Режим частоты кадров                     : Постоянный
Частота кадров                           : 25,000 кадров/сек
Стандарт вещания                         : NTSC
Цветовое пространство                    : YUV
Субдискретизация насыщенности            : 4:2:0
Битовая глубина                          : 8 бит
Тип развёртки                            : Прогрессивная
Бит/(Пиксели*Кадры)                      : 0.217
Размер потока                            : 1,50 Гбайт (94%)
Библиотека кодирования                   : x264 core 114
Настройки программы                      : cabac=1 / ref=3 / deblock=1:0:0 / analyse=0x3:0x113 / me=hex / subme=7 / psy=1 / psy_rd=1.00:0.00 / mixed_ref=1 / me_range=16 / chroma_me=1 / trellis=1 / 8x8dct=1 / cqm=2 / deadzone=21,11 / fast_pskip=1 / chroma_qp_offset=-4 / threads=6 / sliced_threads=0 / slices=1 / nr=0 / decimate=1 / interlaced=0 / constrained_intra=0 / bframes=3 / b_pyramid=0 / b_adapt=1 / b_bias=0 / direct=1 / weightb=1 / open_gop=0 / weightp=2 / keyint=250 / keyint_min=25 / scenecut=40 / intra_refresh=0 / rc_lookahead=40 / rc=2pass / mbtree=1 / bitrate=5000 / ratetol=1.0 / qcomp=0.60 / qpmin=5 / qpmax=69 / qpstep=4 / cplxblur=20.0 / qblur=0.5 / vbv_maxrate=25000 / vbv_bufsize=24985 / nal_hrd=vbr / ip_ratio=1.40 / aq=1:1.00
Default                                  : Да
Forced                                   : Нет
Цветовой диапазон                        : Limited
Основные цвета                           : BT.709
Характеристики трансфера                 : BT.709
Коэффициенты матрицы                     : BT.709

Аудио
Идентификатор                            : 2
Формат                                   : AC-3
Формат/Информация                        : Audio Coding 3
Параметр Endianness формата              : Big
Идентификатор кодека                     : A_AC3
Продолжительность                        : 43 м. 58 с.
Вид битрейта                             : Постоянный
Битрейт                                  : 192 Кбит/сек
Каналы                                   : 2 канала
Расположение каналов                     : Front: L R
Частота                                  : 48,0 КГц
Частота кадров                           : 31,250 кадров/сек (1536 SPF)
Битовая глубина                          : 16 бит
Метод сжатия                             : С потерями
Размер потока                            : 60,4 Мбайт (4%)
ServiceKind/String                       : Complete Main
Default                                  : Да
Forced                                   : Нет

Общее
Уникальный идентификатор                 : 269648221228474110058599778008604197355 (0xCADC5BBE3B8388F5FF5485395A59C1EB)
Полное имя                               : F:\КИНО\Great dreamers_720p\05_Jules Verne_A life long journey.mkv
Формат                                   : Matroska
Версия формата                           : Version 4 / Version 2
Размер файла                             : 1,86 Гбайт
Продолжительность                        : 51 м. 12 с.
Общий поток                              : 5204 Кбит/сек
Дата кодирования                         : UTC 2017-10-29T07:04:43Z
Программа кодирования                    : HandBrake 1.0.7 2017040900
Библиотека кодирования                   : Lavf57.7.2

Видео
Идентификатор                            : 1
Формат                                   : AVC
Формат/Информация                        : Advanced Video Codec
Профиль формата                          : High@L4
Настройки формата                        : CABAC / 4 Ref Frames
Параметр CABAC формата                   : Да
Параметр RefFrames формата               : 4 кадра
Идентификатор кодека                     : V_MPEG4/ISO/AVC
Продолжительность                        : 51 м. 12 с.
Битрейт                                  : 5000 Кбит/сек
Ширина                                   : 1280 пикселей
Высота                                   : 720 пикселей
Соотношение сторон                       : 16:9
Режим частоты кадров                     : Постоянный
Частота кадров                           : 25,000 кадров/сек
Цветовое пространство                    : YUV
Субдискретизация насыщенности            : 4:2:0
Битовая глубина                          : 8 бит
Тип развёртки                            : Прогрессивная
Бит/(Пиксели*Кадры)                      : 0.217
Размер потока                            : 1,76 Гбайт (94%)
Библиотека кодирования                   : x264 core 148 r2708 86b7198
Настройки программы                      : cabac=1 / ref=1 / deblock=1:0:0 / analyse=0x3:0x113 / me=hex / subme=2 / psy=1 / psy_rd=1.00:0.00 / mixed_ref=0 / me_range=16 / chroma_me=1 / trellis=0 / 8x8dct=1 / cqm=0 / deadzone=21,11 / fast_pskip=1 / chroma_qp_offset=0 / threads=6 / lookahead_threads=2 / sliced_threads=0 / nr=0 / decimate=1 / interlaced=0 / bluray_compat=0 / constrained_intra=0 / bframes=3 / b_pyramid=2 / b_adapt=1 / b_bias=0 / direct=1 / weightb=1 / open_gop=0 / weightp=1 / keyint=250 / keyint_min=25 / scenecut=40 / intra_refresh=0 / rc_lookahead=10 / rc=abr / mbtree=1 / bitrate=5000 / ratetol=1.0 / qcomp=0.60 / qpmin=0 / qpmax=69 / qpstep=4 / vbv_maxrate=25000 / vbv_bufsize=31250 / nal_hrd=none / filler=0 / ip_ratio=1.40 / aq=1:1.00
Default                                  : Да
Forced                                   : Нет
Цветовой диапазон                        : Limited
Основные цвета                           : BT.709
Характеристики трансфера                 : BT.709
Коэффициенты матрицы                     : BT.709

Аудио
Идентификатор                            : 2
Формат                                   : AC-3
Формат/Информация                        : Audio Coding 3
Параметр Endianness формата              : Big
Идентификатор кодека                     : A_AC3
Продолжительность                        : 51 м. 12 с.
Вид битрейта                             : Постоянный
Битрейт                                  : 192 Кбит/сек
Каналы                                   : 2 канала
Расположение каналов                     : Front: L R
Частота                                  : 44,1 КГц
Частота кадров                           : 28,711 кадров/сек (1536 SPF)
Битовая глубина                          : 16 бит
Метод сжатия                             : С потерями
Задержка видео                           : -6 мс.
Размер потока                            : 70,3 Мбайт (4%)
Заголовок                                : Stereo
ServiceKind/String                       : Complete Main
Default                                  : Да
Forced                                   : Нет
#77 http://www.imdb.com/title/tt4499244/?ref_=plg_rt_1
«Дайте мне точку опоры, и я переверну весь мир» – каждый знает эти слова, принадлежащие Архимеду. Он действительно изменил мир вокруг нас, заставив законы физики работать для человека, заложив основы механики и сделав множество математических открытий. Родившись в семье ученого, он с самого детства полюбил науку. Царь Гиерон разглядел талант в юном Архимеда и отправил его на обучение к великому Эвклиду. Но именно по велению царя, гений был вынужден направить свой талант на военную службу… Если вы достаточно безумны, чтобы заниматься делом, которое любите — вы обречены прожить жизнь, полную смысла.
#77 http://www.imdb.com/title/tt4500132/?ref_=plg_rt_1
Лучший друг да Винчи — Франческо Мельци — рассказывает о жизни и об истории великих научных открытий знаменитого итальянского художника и ученого. Начиная с юных лет, Франческо был верным спутником Леонардо во всех его начинаниях. Стремление постигнуть тайны природы, любознательность и гибкость ума позволили да Винчи путем многочисленных опытов сделать ряд гениальных открытий.
#77 http://www.imdb.com/title/tt2947386/?ref_=plg_rt_1
Еще в детстве, будучи смертельно болен, маленький Тесла пообещал родителям, что выздоровеет только в том случае, если они разрешат стать ему инженером. Он сдержал свое обещание. Стремление к знаниям, научные исследования, потрясающие идеи, перевернувшие все представления об электричестве в сочетании с верностью своим принципам, невероятным мужеством и смелостью — вот качества, которыми обладал гениальный физик. Никола Тесла навсегда останется тем ученым, чья жизнь больше похожа на мистификацию, чем на правду.
#77 http://www.imdb.com/title/tt2936818/?ref_=plg_rt_1
Фильм посвящен жизни и научной деятельности гениального учёного, благодаря которому человечество сделало первые шаги в изучении и покорении космоса.
#77 http://www.imdb.com/title/tt2973698/?ref_=plg_rt_1
«Неутомимый путешественник» - так Жюль Верна называли современники. Человек с безграничной фантазией и неудержимой жаждой жизни – он подарил нам инструкцию по мечтанию. И действительно, кто же из нас не хотел обогнуть земной шар вместе с Филеасом Фоггом и Жаном Паспарту? Кто не мечтал очутиться на «Наутилусе» с Капитаном Немо? Этот фильм - не что иное, как небольшой экскурс в детство.

Скриншоты:



Время раздачи: с 18:00 до 23:00 (до появления первых 3-5 скачавших)
Не забывайте говорить Спасибо. Не уходите с раздачи!   
Торрент: Зарегистрирован [10 янв 2018, 17:34] Для скачивания .torrent
необходима регистрация
Или скачать с помощью
MediaGet
Статус:
Проверен
 
.torrent скачан: 0 раз
Размер: 8.77 ГБ (9 421 939 156 байт)
   Стать Автором раздачи
   
Цитата

Вернуться в Личности

Кто сейчас на конференции

Сейчас эту тему просматривают: нет зарегистрированных пользователей и гости: 1