Суворов (2008) VHSRip

 Статистика раздачи 
Размер: 380.31 МБ   |  Зарегистрирован: 10 янв 2018, 17:33   |   .torrent скачан: 0 раз
Сидеров: 0  [ 0 байт/сек ]     Личеров: 0  [ 0 байт/сек ]  
  
Аватара пользователя
 
Раздал: 0 байт
Скачал: 0 байт
Ратио: Inf.
Сообщения: 111963
Стаж: 7 лет 3 месяца 9 дней
Откуда: Rossiya
СообщениеДобавлено: 17 май 2010, 15:00


Суворов (2008) VHSRip

Режиссер: Алексей Денисов
Жанр: Документальный, Исторический

Описание:
"Потомство моё прошу брать мой пример: всякое дело начинать с благословением Божиим; до издыхания быть верным Государю и Отечеству; убегать роскоши, праздности, корыстолюбия и искать славы чрез истину и добродетель, которые суть моим символом…" (Александр Суворов) Великий русский полководец Александр Васильевич Суворов поистине легендарная личность мирового значения. Подвигами его писалась история конца 18-го века. Доблестному взятию крепости Измаил поражались не только наши соотечественники, но и военачальники всей Европы. Глазомер, Быстрота, Натиск - вот пример мужества и отваги в тактике ведения боя Великим полководцем.

Продолжительность: 00:43:55
Качество видео: VHSRip
Субтитры: отсутствуют

Видео: XviD, 720x576 (5:4), 25.000 fps, 1009 Kbps (0.097 bit/pixel)
Аудио: AC-3, 48.0 KHz, 2 ch, 192 Kbps, CBR
Код: Выделить всё
Complete name               : \Suvorov.avi
Format                      : AVI
Format/Info                 : Audio Video Interleave
File size                   : 380 MiB
Duration                    : 43mn 55s
Overall bit rate            : 1 210 Kbps
Writing application         : VirtualDubMod 1.5.10.2 (build 2542/release)
Writing library             : VirtualDubMod build 2542/release

Video
ID                          : 0
Format                      : MPEG-4 Visual
Format profile              : Advanced [email protected]
Format settings, BVOP       : 2
Format settings, QPel       : No
Format settings, GMC        : No warppoints
Format settings, Matrix     : Default (MPEG)
Muxing mode                 : Packed bitstream
Codec ID                    : XVID
Codec ID/Hint               : XviD
Duration                    : 43mn 55s
Bit rate                    : 1 009 Kbps
Width                       : 720 pixels
Height                      : 576 pixels
Display aspect ratio        : 5:4
Frame rate                  : 25.000 fps
Standard                    : PAL
Color space                 : YUV
Chroma subsampling          : 4:2:0
Bit depth                   : 8 bits
Scan type                   : Progressive
Compression mode            : Lossy
Bits/(Pixel*Frame)          : 0.097
Stream size                 : 317 MiB (83%)
Writing library             : XviD 1.1.2 (UTC 2006-11-01)

Audio
ID                          : 1
Format                      : AC-3
Format/Info                 : Audio Coding 3
Mode extension              : CM (complete main)
Format settings, Endianness : Big
Codec ID                    : 2000
Duration                    : 43mn 55s
Bit rate mode               : Constant
Bit rate                    : 192 Kbps
Channel(s)                  : 2 channels
Channel positions           : Front: L R
Sampling rate               : 48.0 KHz
Compression mode            : Lossy
Stream size                 : 60.3 MiB (16%)
Alignment                   : Split accross interleaves
Interleave, duration        : 40 ms (1.00 video frame)
Interleave, preload duratio : 500 ms

Скриншоты:



   
Торрент: Зарегистрирован [10 янв 2018, 17:33] Скачать торрент Магнет ссылка
Скачать торрент
[ Размер 15.59 КБ / Просмотров 0 ]
Статус:
Проверен
 
.torrent скачан: 0 раз
Размер: 380.31 МБ (398 786 560 байт)
   Стать Автором раздачи
 
 
Шапка детская "Красная шапочка". Детские шапки для бани. Изделие для защиты волос и кожи головы от воздействия высокой температуры в бане и сауне, декорированная цветными нитями
Цитата

Вернуться в Личности

Кто сейчас на конференции

Сейчас эту тему просматривают: нет зарегистрированных пользователей и гости: 1