Суворов (2008) DVDRip

 Статистика раздачи 
Размер: 605.98 МБ   |  Зарегистрирован: 10 янв 2018, 17:33   |   .torrent скачан: 0 раз
Сидеров: 0  [ 0 байт/сек ]     Личеров: 0  [ 0 байт/сек ]  
  
Аватара пользователя
 
Раздал: 0 байт
Скачал: 0 байт
Ратио: Inf.
Сообщения: 184682
Стаж: 7 лет 9 месяцев 22 дня
Откуда: Rossiya
СообщениеДобавлено: 21 апр 2013, 15:48


Суворов (2008) DVDRip

Жанр: Документальный, Исторический

Режиссер: Алексей Денисов

Описание:
Фильм из цикла Царская Россия.
"Потомство моё прошу брать мой пример: всякое дело начинать с благословением Божиим; до издыхания быть верным Государю и Отечеству; убегать роскоши, праздности, корыстолюбия и искать славы чрез истину и добродетель, которые суть моим символом…" (Александр Суворов) Великий русский полководец Александр Васильевич Суворов поистине легендарная личность мирового значения. Подвигами его писалась история конца 18-го века. Доблестному взятию крепости Измаил поражались не только наши соотечественники, но и военачальники всей Европы. Глазомер, Быстрота, Натиск - вот пример мужества и отваги в тактике ведения боя Великим полководцем. Суворов не проиграл ни одного сражения. Пройдя путь от рядового солдата до фельдмаршала, Александр Васильевич понимал солдата как никто другой из офицеров русской армии. Боевой дух Суворова является примером и для нынешних вооружённых сил России. Подвиги его бессмертны. Заслуги перед нашим Отечеством грандиозны.

Продолжительность: 00:43:56
Качество видео: DVDRip

Видео: Xvid, 688x512 (4:3), ~1727 kbps
Аудио: AC3, 2 ch, 192 kbps
Код: Выделить всё
Общее
Полное имя : Суворов (2008) DVDRip.avi
Формат : AVI
Формат/Информация : Audio Video Interleave
Размер файла : 606 Мбайт
Продолжительность : 43 м.
Общий поток : 1928 Кбит/сек
Программа кодирования : FairUse Wizard
Библиотека кодирования : The best and REALLY easy backup tool

Видео
Идентификатор : 0
Формат : MPEG-4 Visual
Профиль формата : Simple@L3
Параметр BVOP формата : Нет
Параметр QPel формата : Нет
Параметр GMC формата : Без точки перехода
Параметр матрицы формата : Default (H.263)
Идентификатор кодека : XVID
Идентификатор кодека/Подсказка : XviD
Продолжительность : 43 м.
Битрейт : 1727 Кбит/сек
Ширина : 688 пикселей
Высота : 512 пикселей
Соотношение сторон : 4:3
Частота кадров : 25,000 кадров/сек
Цветовое пространство : YUV
Субдискретизация насыщенности : 4:2:0
Битовая глубина : 8 бит
Тип развёртки : Прогрессивная
Метод сжатия : С потерями
Бит/(Пиксели*Кадры) : 0.196
Размер потока : 543 Мбайт (90%)
Библиотека кодирования : XviD 1.1.0 (UTC 2005-11-22)

Аудио
Идентификатор : 1
Формат : AC-3
Формат/Информация : Audio Coding 3
Расширение режима : CM (complete main)
Параметр Endianness формата : Big
Идентификатор кодека : 2000
Продолжительность : 43 м.
Вид битрейта : Постоянный
Битрейт : 192 Кбит/сек
Каналы : 2 канала
Расположение каналов : Front: L R
Частота : 48,0 КГц
Битовая глубина : 16 бит
Метод сжатия : С потерями
Размер потока : 60,3 Мбайт (10%)
Выравнивание : Разделение по промежуткам
Продолжительность промежутка : 40 мс. (1,00 видеокадр)
Время предзагрузки промежутка : 500 мс.

Скриншоты:



Не забывайте говорить Спасибо. Не уходите с раздачи!   
Торрент: Зарегистрирован [10 янв 2018, 17:33] Для скачивания .torrent
необходима регистрация
Или скачать с помощью
MediaGet
Статус:
Проверен
 
.torrent скачан: 0 раз
Хэш: 09b2510db659b631760d267e73868222464fd91c
Размер: 605.98 МБ (635 418 624 байт)
   Стать Автором раздачи
   
Цитата

Вернуться в Личности

Кто сейчас на конференции

Сейчас эту тему просматривают: нет зарегистрированных пользователей и гости: 1