Диана, наша мама: ее жизнь и наследие / Diana, Our Mother: Her Life and Legacy (2017) DVB

 Статистика раздачи 
Размер: 525.06 МБ   |  Зарегистрирован: 10 янв 2018, 17:33   |   .torrent скачан: 1 раз
Сидеров: 12  [ 0 байт/сек ]     Личеров: 2  [ 0 байт/сек ]  
  
Аватара пользователя
 
Раздал: 0 байт
Скачал: 0 байт
Ратио: Inf.
Сообщения: 142402
Стаж: 7 лет 5 месяцев 5 дней
Откуда: Rossiya

Диана, наша мама: ее жизнь и наследие / Diana, Our Mother: Her Life and Legacy (2017) DVB

Телекомпания: Великобритания / ITV - Independent Television, Oxford Film & Television
Жанр: Документальный, Биография, История

Участники: Victor Adebowale, Graham Dillamore, Jayne Fincher, Anna Harvey, Элтон Джон, Gerard McGrath, Принцесса Диана, Рианна, William van Straubenzee, Carolyn Warren

Описание:
Премьера фильма «Диана — наша мама» приурочена к 20-й годовщине ее трагической гибели. Он рассказывает о жизни и общественной деятельности Дианы, принцессы Уэльской. По словам исполнительного продюсера фильма Ника Кента, «фильм покажет принцессу Диану такой, какой ее никто раньше не видел, глазами тех двух людей, которые знали ее лучше других». В фильме впервые будут представлены интервью с людьми, близко знавшими Диану, и новые архивные материалы. Глубоко личные воспоминания членов семьи и друзей принцессы Уэльской, многие из которых никогда раньше не давали интервью, позволят зрителям лучше узнать человека, повлиявшего на жизнь миллионов людей. Дети принцессы Дианы расскажут о ее благотворительной и гуманитарной деятельности. Она активно боролась за запрет противопехотных мин, поддерживала людей, потерявших близких, помогала бездомным и вела борьбу с распространением СПИДа. На протяжении всего фильма братья рассматривают семейный фотоальбом и вспоминают самые веселые и трогательные моменты своего детства.

http://www.imdb.com/title/tt7026662/?ref_=plg_rt_1
Продолжительность: 00:47:56
Качество видео: DVB
Перевод: Многоголосый закадровый, профессиональный (Первый канал)
Субтитры: отсутствуют

Видео: AVC/H.264, 720х[email protected], ~1297 Kbps
Аудио: MP2, 2 ch, 160 kbps
Код: Выделить всё
Общее
Идентификатор                            : 16 (0x10)
Полное имя                               : Diana, Our Mother_Her Life and Legacy.ts
Формат                                   : MPEG-TS
Размер файла                             : 525 Мбайт
Продолжительность                        : 47 м. 50 с.
Режим общего битрейта                    : Переменный
Общий поток                              : 1534 Кбит/сек

Видео
Идентификатор                            : 1414 (0x586)
Идентификатор меню                       : 414 (0x19E)
Формат                                   : AVC
Формат/Информация                        : Advanced Video Codec
Профиль формата                          : [email protected]
Параметр CABAC формата                   : Да
Параметр ReFrames формата                : 4 кадра
Идентификатор кодека                     : 27
Продолжительность                        : 47 м. 55 с.
Битрейт                                  : 1297 Кбит/сек
Ширина                                   : 720 пикселей
Высота                                   : 576 пикселей
Соотношение сторон                       : 16:9
Частота кадров                           : 25,000 кадров/сек
Стандарт вещания                         : PAL
Цветовое пространство                    : YUV
Субдискретизация насыщенности            : 4:2:0
Битовая глубина                          : 8 бит
Тип развёртки                            : Чересстрочная
Метод сохранения типа развёртки          : Раздельные поля
Порядок развёртки                        : Верхнее поле первое
Бит/(Пиксели*Кадры)                      : 0.125
Размер потока                            : 445 Мбайт (85%)
Цветовой диапазон                        : Limited
Основные цвета                           : BT.601 PAL
Характеристики трансфера                 : BT.470 System B, BT.470 System G
Коэффициенты матрицы                     : BT.601

Аудио
Идентификатор                            : 2414 (0x96E)
Идентификатор меню                       : 414 (0x19E)
Формат                                   : MPEG Audio
Версия формата                           : Version 1
Профиль формата                          : Layer 2
Идентификатор кодека                     : 4
Продолжительность                        : 47 м. 55 с.
Вид битрейта                             : Постоянный
Битрейт                                  : 160 Кбит/сек
Каналы                                   : 2 канала
Частота                                  : 48,0 КГц
Метод сжатия                             : С потерями
Задержка видео                           : 30 мс.
Размер потока                            : 54,9 Мбайт (10%)
Язык                                     : std
Язык, дополнительно                      : Clean effects

Скриншоты:




Время раздачи: Пн-Пт с 18:00 до 22:00 (до появления первых 3-5 скачавших)
   
Торрент: Зарегистрирован [10 янв 2018, 17:33] Скачать торрент Магнет ссылка
Скачать торрент
[ Размер 11.13 КБ / Просмотров 4 ]
Статус:
Проверен
 
.torrent скачан: 1 раз
Размер: 525.06 МБ (550 564 392 байт)
   Стать Автором раздачи
 
 
Цитата
  • Похожие торренты
    Ответы
    Просмотры
    Последнее сообщение

Вернуться в Личности

Кто сейчас на конференции

Сейчас эту тему просматривают: нет зарегистрированных пользователей и гости: 1