90 лет Дэвиду Аттенборо. По ту сторону экрана / Attenborough at 90. Behind the Lens (2016) DVB

 Статистика раздачи 
Размер: 2.18 ГБ   |  Зарегистрирован: 10 янв 2018, 17:33   |   .torrent скачан: 0 раз
Сидеров: 0  [ 0 байт/сек ]     Личеров: 0  [ 0 байт/сек ]  
  
Аватара пользователя
 
Раздал: 0 байт
Скачал: 0 байт
Ратио: Inf.
Сообщения: 111963
Стаж: 7 лет 3 месяца 9 дней
Откуда: Rossiya

90 лет Дэвиду Аттенборо. По ту сторону экрана (2016) DVB

Производство: Великобритания, Atlantic Productions
Жанр: Документальный

Описание:
Отмечая свой 90-й день рождения, Сэр Дэвид Аттенборо делится размышлениями о своей жизни и карьере, рассказывает о людях, которые его вдохновляют, и об удивительных путешествиях, которые ему довелось совершить.

http://www.imdb.com/title/tt5684728/?ref_=plg_rt_1

Продолжительность: 00:49:36
Качество видео: DVB
Язык: Русский

Видео: MPEG-2, 720x576, ~5772 Kbps
Аудио: MP2, 2 ch, 192 Kbps
Код: Выделить всё
Общее
Идентификатор                            : 1 (0x1)
Полное имя                               : F:\КИНО\90 лет Дэвиду Аттенборо. По ту сторону экрана.ts
Формат                                   : MPEG-TS
Размер файла                             : 2,18 Гбайт
Продолжительность                        : 49 м. 36 с.
Режим общего битрейта                    : Переменный
Общий поток                              : 6276 Кбит/сек

Видео
Идентификатор                            : 256 (0x100)
Идентификатор меню                       : 1 (0x1)
Формат                                   : MPEG Video
Версия формата                           : Version 2
Профиль формата                          : [email protected]
Параметр BVOP формата                    : Да
Параметр матрицы формата                 : Выборочная
Параметр GOP формата                     : Variable
Структура изображения                    : Frame
Идентификатор кодека                     : 2
Продолжительность                        : 49 м. 36 с.
Вид битрейта                             : Переменный
Битрейт                                  : 5772 Кбит/сек
Максимальный битрейт                     : 15,0 Мбит/сек
Ширина                                   : 720 пикселей
Высота                                   : 576 пикселей
Соотношение сторон                       : 4:3
Частота кадров                           : 25,000 кадров/сек
Стандарт вещания                         : PAL
Цветовое пространство                    : YUV
Субдискретизация насыщенности            : 4:2:0
Битовая глубина                          : 8 бит
Тип развёртки                            : Чересстрочная
Порядок развёртки                        : Верхнее поле первое
Метод сжатия                             : С потерями
Бит/(Пиксели*Кадры)                      : 0.557
Временной код первого кадра              : 00:00:00:00
Оригинал временного кода                 : Group of pictures header
GOP, открыто/закрыто                     : Открыто
Размер потока                            : 2,00 Гбайт (92%)

Аудио
Идентификатор                            : 257 (0x101)
Идентификатор меню                       : 1 (0x1)
Формат                                   : MPEG Audio
Версия формата                           : Version 1
Профиль формата                          : Layer 2
Идентификатор кодека                     : 3
Продолжительность                        : 49 м. 36 с.
Вид битрейта                             : Постоянный
Битрейт                                  : 192 Кбит/сек
Каналы                                   : 2 канала
Частота                                  : 48,0 КГц
Метод сжатия                             : С потерями
Задержка видео                           : 14 мс.
Размер потока                            : 68,1 Мбайт (3%)
Язык                                     : Russian

Скриншоты:




Время раздачи: с 18:00 до 23:00 (до появления первых 3-5 скачавших)
   
Торрент: Зарегистрирован [10 янв 2018, 17:33] Скачать торрент Магнет ссылка
Скачать торрент
[ Размер 11.79 КБ / Просмотров 0 ]
Статус:
Проверен
 
.torrent скачан: 0 раз
Размер: 2.18 ГБ (2 335 502 192 байт)
   Стать Автором раздачи
 
 
Шапка детская "Красная шапочка". Детские шапки для бани. Изделие для защиты волос и кожи головы от воздействия высокой температуры в бане и сауне, декорированная цветными нитями
Цитата
  • Похожие торренты
    Ответы
    Просмотры
    Последнее сообщение

Вернуться в Личности

Кто сейчас на конференции

Сейчас эту тему просматривают: нет зарегистрированных пользователей и гости: 1