Черная рука (2014) SATRip

 Статистика раздачи 
Размер: 713.39 МБ   |  Зарегистрирован: 10 янв 2018, 17:32   |   .torrent скачан: 107 раз
Сидеров: 6  [ 0 байт/сек ]     Личеров: 0  [ 0 байт/сек ]  
  
Аватара пользователя
 
Раздал: 0 байт
Скачал: 0 байт
Ратио: Inf.
Сообщения: 142514
Стаж: 7 лет 5 месяцев 6 дней
Откуда: Rossiya
СообщениеДобавлено: 06 авг 2017, 02:59


Черная рука (2014) SATRip

Телекомпания: Беларусь, ООО «Продюсерский центр «МПА»
Жанр: Документальный, биография, война, история,

Режиссер: Игорь Угольников, Олег Шишкин

Описание:
В Белграде на алее бойцов народно-освободительного армии плита без дат рождения и смерти утверждает – «здесь лежит Герой Советского Союза Мустафа Голубич», но это всего лишь памятный знак, здесь погребения. Плита была положена во время правления Иосипа Броз Тито, по всей видимости он знал кто был этот человек.
Этот фильм является одним из цикла проектов Телерадиовещательной организации Союзного государства о Первой мировой войне, приуроченных к 100-летию её начала. Мир узнал о «Черной руке» в 1914 году, когда эта сербская организация осуществила покушение на эрцгерцога Франца-Фердинанда, что привело к началу Первой Мировой войны. В фильме раскрываются сенсационные подробности причастности «Черной руки» ко многим событиям 20 века, в том числе к перевороту, произошедшему весной 1941 года в Югославии. Он позволил Сталину оттянуть начало войны на целый месяц.
По первоначальному плану нападения на СССР нападения должно было произойти 15 мая, но дата сместилась на 22 июня, почему? Одна из версий гласит, что эту смогла помочь развязанная война между Германией и Югославией, ведь по первоначальным замыслам Гитлера Югославия должна была присоединиться к тройственному пакту, но в Югославии внезапно происходит государственный переворот. Был ли в этом замешан Мустафа Голубич?
Главной фигурой международной интриги стал советский военный разведчик Мустафа Голубич, чьё имя было связано и с «Черной рукой» и с ликвидацией Льва Троцкого, за что он получил звание Героя Советского Союза.

Релиз от: alf62
Продолжительность: 00:49:50
Качество видео: SATRip

Видео: Xvid, 720x400, ~1800 Kbps
Аудио: AC3, 2 ch, 192 Kbps
Код: Выделить всё
Черная.рука.2012.XviD.SATRip.alf62.avi
Формат                                   : AVI
Формат/Информация                        : Audio Video Interleave
Размер файла                             : 713 Мбайт
Продолжительность                        : 49 м.
Общий поток                              : 2002 Кбит/сек
Программа кодирования                    : VirtualDubMod 1.5.10.3 | [url=http://www.virtualdub-fr.org]www.virtualdub-fr.org[/url] || (build 2550/release)
Библиотека кодирования                   : VirtualDubMod build 2550/release
Видео
Идентификатор                            : 0
Формат                                   : MPEG-4 Visual
Профиль формата                          : Advanced [email protected]
Параметр BVOP формата                    : 2
Параметр QPel формата                    : Нет
Параметр GMC формата                     : Без точки перехода
Параметр матрицы формата                 : Default (MPEG)
Идентификатор кодека                     : XVID
Идентификатор кодека/Подсказка           : XviD
Продолжительность                        : 49 м.
Битрейт                                  : 1800 Кбит/сек
Ширина                                   : 720 пикселей
Высота                                   : 400 пикселей
Соотношение сторон                       : 16:9
Частота кадров                           : 25,000 кадров/сек
Цветовое пространство                    : YUV
Субдискретизация насыщенности            : 4:2:0
Битовая глубина                          : 8 бит
Тип развёртки                            : Прогрессивная
Метод сжатия                             : С потерями
Бит/(Пиксели*Кадры)                      : 0.250
Размер потока                            : 641 Мбайт (90%)
Библиотека кодирования                   : XviD 73
Аудио
Идентификатор                            : 1
Формат                                   : AC-3
Формат/Информация                        : Audio Coding 3
Расширение режима                        : CM (complete main)
Параметр Endianness формата              : Big
Идентификатор кодека                     : 2000
Продолжительность                        : 49 м.
Вид битрейта                             : Постоянный
Битрейт                                  : 192 Кбит/сек
Каналы                                   : 2 канала
Расположение каналов                     : Front: L R
Частота                                  : 48,0 КГц
Битовая глубина                          : 16 бит
Метод сжатия                             : С потерями
Размер потока                            : 68,4 Мбайт (10%)
Выравнивание                             : Разделение по промежуткам
Продолжительность промежутка             : 40  мс. (1,00 видеокадр)
Время предзагрузки промежутка            : 500  мс.

Скриншоты:







Время раздачи: до появления первых 3-5 скачавших
   
Торрент: Зарегистрирован [10 янв 2018, 17:32] Скачать торрент Магнет ссылка
Скачать торрент
[ Размер 14.8 КБ / Просмотров 1 ]
Статус:
Проверен
 
.torrent скачан: 107 раз
Размер: 713.39 МБ (748 042 240 байт)
   Стать Автором раздачи
 
 
Цитата
  • Похожие торренты
    Ответы
    Просмотры
    Последнее сообщение

Вернуться в Личности

Кто сейчас на конференции

Сейчас эту тему просматривают: нет зарегистрированных пользователей и гости: 1