Перелет длиною в жизнь (2012) SATRip (серии 1-2 из 2)

 Статистика раздачи 
Размер: 741.07 МБ   |  Зарегистрирован: 10 янв 2018, 17:32   |   .torrent скачан: 0 раз
Сидеров: 0  [ 0 байт/сек ]     Личеров: 0  [ 0 байт/сек ]  
  
Аватара пользователя
 
Раздал: 0 байт
Скачал: 0 байт
Ратио: Inf.
Сообщения: 184682
Стаж: 7 лет 9 месяцев 22 дня
Откуда: Rossiya

Перелет длиною в жизнь (2012) SATRip (2 серии из 2)

Телекомпания: Россия, Киностудия «Рифей»
Жанр: Документальный, авиация история, биография

Режиссер: Семен Белый

Описание:
Фильм приурочен к 75-летию легендарного перелета Валерия Чкалова через Северный полюс. Осенью 1935 года лётчик Байдуков предложил Чкалову организовать рекордный перелёт из СССР в США через Северный полюс и возглавить экипаж самолёта. Старт самолёта АНТ-25 состоялся 18 июня. Полёт проходил в сложных условиях, но 20 июня самолёт совершил благополучную посадку в американском городе Ванкувер (штат Вашингтон, США). Протяжённость перелёта составила 8504 километра. За этот перелёт экипаж был награждён орденами Красного Знамени.
Фильм рассказывает о жизни Валерия Чкалова - выдающегося летчика своего времени, и о его полетах.

Релиз от: alf62
Продолжительность: 2 х ~ 00:26:00
Качество видео: SATRip

Видео: Xvid, 704x528, ~1800 Kbps
Аудио: AC3, 2 ch, 192 Kbps
Код: Выделить всё
Перелет.длиною.в.жизнь.(1.серия.из.2).2012.XviD.SATRip.alf62.avi
Формат                                   : AVI
Формат/Информация                        : Audio Video Interleave
Размер файла                             : 371 Мбайт
Продолжительность                        : 25 м.
Общий поток                              : 2002 Кбит/сек
Программа кодирования                    : VirtualDubMod 1.5.10.3 | [url=http://www.virtualdub-fr.org]www.virtualdub-fr.org[/url] || (build 2550/release)
Библиотека кодирования                   : VirtualDubMod build 2550/release

Видео
Идентификатор                            : 0
Формат                                   : MPEG-4 Visual
Профиль формата                          : Advanced Simple@L5
Параметр BVOP формата                    : 2
Параметр QPel формата                    : Нет
Параметр GMC формата                     : Без точки перехода
Параметр матрицы формата                 : Default (MPEG)
Идентификатор кодека                     : XVID
Идентификатор кодека/Подсказка           : XviD
Продолжительность                        : 25 м.
Битрейт                                  : 1800 Кбит/сек
Ширина                                   : 704 пикселя
Высота                                   : 528 пикселей
Соотношение сторон                       : 4:3
Частота кадров                           : 25,000 кадров/сек
Цветовое пространство                    : YUV
Субдискретизация насыщенности            : 4:2:0
Битовая глубина                          : 8 бит
Тип развёртки                            : Прогрессивная
Метод сжатия                             : С потерями
Бит/(Пиксели*Кадры)                      : 0.194
Размер потока                            : 333 Мбайт (90%)
Библиотека кодирования                   : XviD 73

Аудио
Идентификатор                            : 1
Формат                                   : AC-3
Формат/Информация                        : Audio Coding 3
Расширение режима                        : CM (complete main)
Параметр Endianness формата              : Big
Идентификатор кодека                     : 2000
Продолжительность                        : 25 м.
Вид битрейта                             : Постоянный
Битрейт                                  : 192 Кбит/сек
Каналы                                   : 2 канала
Расположение каналов                     : Front: L R
Частота                                  : 48,0 КГц
Битовая глубина                          : 16 бит
Метод сжатия                             : С потерями
Размер потока                            : 35,5 Мбайт (10%)
Выравнивание                             : Разделение по промежуткам
Продолжительность промежутка             : 40  мс. (1,00 видеокадр)
Время предзагрузки промежутка            : 500  мс.

Скриншоты:



Время раздачи: до появления первых 3-5 скачавших
Не забывайте говорить Спасибо. Не уходите с раздачи!   
Торрент: Зарегистрирован [10 янв 2018, 17:32] Для скачивания .torrent
необходима регистрация
Или скачать с помощью
MediaGet
Статус:
Проверен
 
.torrent скачан: 0 раз
Хэш: 12be6990113745645f8d3a60309d869d421ca950
Размер: 741.07 МБ (777 068 544 байт)
   Стать Автором раздачи
   
Цитата

Вернуться в Личности

Кто сейчас на конференции

Сейчас эту тему просматривают: нет зарегистрированных пользователей и гости: 1