Вильгельм Завоеватель / Guillaume le Conquerant (2014) HDTVRip [H.264/720p-LQ]

 Статистика раздачи 
Размер: 1.54 ГБ   |  Зарегистрирован: 10 янв 2018, 17:32   |   .torrent скачан: 0 раз
Сидеров: 0  [ 0 байт/сек ]     Личеров: 0  [ 0 байт/сек ]  
  
Аватара пользователя
 
Раздал: 0 байт
Скачал: 0 байт
Ратио: Inf.
Сообщения: 160606
Стаж: 7 лет 6 месяцев 4 дня
Откуда: Rossiya

Вильгельм Завоеватель / Guillaume le Conquérant (2014) HDTVRip [H.264/720p-LQ]

Производство: Франция, Les Films d'Ici See more
Жанр: Документальный, история, биография, игровой

Режиссер: Фредерик Компэйн

Описание:
Вильгельм был незаконным сыном Роберта I, герцога Нормандии. Он родился на севере Франции, в Фалезе. В возрасте 8 лет наследовал отцовский титул и до своего совершеннолетия постоянно подвергался нападкам сверстников из аристократических фамилий за свое происхождение. Благодаря покровительству французского короля Генриха I юный герцог смог удержаться на нормандском престоле, которому угрожали не только сильные соседи, но и местные бароны.
Еще юношей Вильгельм Нормандский проявил себя как воин и лидер. Достигнув совершеннолетия, он начал укреплять свою власть в герцогстве, силой оружия покончил с междоусобицей своевольных баронов. К тому времени у него уже имелось хотя и небольшое, но хорошо вооруженное и преданное войско.
Стремясь к королевской короне, герцог Вильгельм проявил большую настойчивость и дипломатическую твердость. Еще в 1061 году он убедил короля Эдуарда, который не имел потомства, поддержать его претензии на английский престол. Тот согласился, но перед самой смертью изменил свое решение в пользу своего шурина Гарольда Годвина...



Релиз от: рип skorpionN
Продолжительность: 00:52:43
Качество видео: HDTVRip
Перевод: Двуголосый закадровый, профессиональный (Видеофильм ТВ)
Субтитры: английские, (частичные, неотключаемые)

Видео: AVC/H.264, 1280x720, ~4000 Kbps
Аудио: AC3, 2 ch, 192 Kbps
Код: Выделить всё
Общее
Уникальный идентификатор                 : 227706603904325927420403297204480602911 (0xAB4EB25AE46DF6BBAC174F34DE69731F)
Полное имя                               : F:\КИНО\William The Conqueror_720p.mkv
Формат                                   : Matroska
Версия формата                           : Version 4 / Version 2
Размер файла                             : 1,54 Гбайт
Продолжительность                        : 52 м. 42 с.
Режим общего битрейта                    : Переменный
Общий поток                              : 4185 Кбит/сек
Дата кодирования                         : UTC 2017-07-26 09:10:21
Программа кодирования                    : mkvmerge v6.9.1 ('Blue Panther') 64bit built on Apr 18 2014 18:23:38
Библиотека кодирования                   : libebml v1.3.0 + libmatroska v1.4.1

Видео
Идентификатор                            : 1
Формат                                   : AVC
Формат/Информация                        : Advanced Video Codec
Профиль формата                          : [url=http://nnm-club.name/mailto:[email protected]][email protected][/url]
Параметр CABAC формата                   : Да
Параметр RefFrames формата               : 3 кадра
Идентификатор кодека                     : V_MPEG4/ISO/AVC
Продолжительность                        : 52 м. 42 с.
Вид битрейта                             : Переменный
Битрейт                                  : 4000 Кбит/сек
Максимальный битрейт                     : 8000 Кбит/сек
Ширина                                   : 1280 пикселей
Высота                                   : 720 пикселей
Соотношение сторон                       : 16:9
Режим частоты кадров                     : Постоянный
Частота кадров                           : 25,000 кадров/сек
Стандарт вещания                         : NTSC
Цветовое пространство                    : YUV
Субдискретизация насыщенности            : 4:2:0
Битовая глубина                          : 8 бит
Тип развёртки                            : Прогрессивная
Бит/(Пиксели*Кадры)                      : 0.174
Размер потока                            : 1,44 Гбайт (93%)
Библиотека кодирования                   : x264 core 114
Настройки программы                      : cabac=1 / ref=3 / deblock=1:0:0 / analyse=0x3:0x113 / me=hex / subme=7 / psy=1 / psy_rd=1.00:0.00 / mixed_ref=1 / me_range=16 / chroma_me=1 / trellis=1 / 8x8dct=1 / cqm=2 / deadzone=21,11 / fast_pskip=1 / chroma_qp_offset=-4 / threads=6 / sliced_threads=0 / slices=1 / nr=0 / decimate=1 / interlaced=0 / constrained_intra=0 / bframes=3 / b_pyramid=0 / b_adapt=1 / b_bias=0 / direct=1 / weightb=1 / open_gop=0 / weightp=2 / keyint=250 / keyint_min=25 / scenecut=40 / intra_refresh=0 / rc_lookahead=40 / rc=2pass / mbtree=1 / bitrate=4000 / ratetol=1.0 / qcomp=0.60 / qpmin=5 / qpmax=69 / qpstep=4 / cplxblur=20.0 / qblur=0.5 / vbv_maxrate=8000 / vbv_bufsize=7995 / nal_hrd=vbr / ip_ratio=1.40 / aq=1:1.00
Default                                  : Да
Forced                                   : Нет
Цветовой диапазон                        : Limited
Основные цвета                           : BT.709
Характеристики трансфера                 : BT.709
Коэффициенты матрицы                     : BT.709

Аудио
Идентификатор                            : 2
Формат                                   : AC-3
Формат/Информация                        : Audio Coding 3
Параметр Endianness формата              : Big
Идентификатор кодека                     : A_AC3
Продолжительность                        : 52 м. 42 с.
Вид битрейта                             : Постоянный
Битрейт                                  : 192 Кбит/сек
Каналы                                   : 2 канала
Расположение каналов                     : Front: L R
Частота                                  : 48,0 КГц
Частота кадров                           : 31,250 кадров/сек (1536 SPF)
Битовая глубина                          : 16 бит
Метод сжатия                             : С потерями
Размер потока                            : 72,4 Мбайт (5%)
ServiceKind/String                       : Complete Main
Default                                  : Да
Forced                                   : Нет

Скриншоты:




Время раздачи: с 18:00 до 23:00 (до появления первых 3-5 скачавших)
   
Торрент: Зарегистрирован [10 янв 2018, 17:32] Скачать торрент Магнет ссылка
Скачать торрент
[ Размер 16.23 КБ / Просмотров 4 ]
Статус:
Проверен
 
.torrent скачан: 0 раз
Размер: 1.54 ГБ (1 654 568 864 байт)
   Стать Автором раздачи
 
 
Цитата
  • Похожие торренты
    Ответы
    Просмотры
    Последнее сообщение

Вернуться в Личности

Кто сейчас на конференции

Сейчас эту тему просматривают: нет зарегистрированных пользователей и гости: 1