Страна советов. Забытые вожди (2016) WEB-DL [H.264/1080p-LQ] (серии 1-8 из 8)

 Статистика раздачи 
Размер: 9.45 ГБ   |  Зарегистрирован: 10 янв 2018, 17:32   |   .torrent скачан: 1 раз
Сидеров: 0  [ 0 байт/сек ]     Личеров: 5  [ 0 байт/сек ]  
  
Аватара пользователя
 
Раздал: 0 байт
Скачал: 0 байт
Ратио: Inf.
Сообщения: 176511
Стаж: 7 лет 7 месяцев 9 дней
Откуда: Rossiya

Страна советов. Забытые вожди (2016) WEB-DL [H.264/1080p-LQ] (серии 1-8 из 8)

Телекомпания: Россия, Украина / "Star Media"
Жанр: История, документальный

Режиссер: Павел Сергацков
Участники: Антон Морозов, Роман Высоцкий, Алексей Устинов, Сергей Тишин, Денис Дёмин, Александр Суворов, Адам Булгучев, Зураб Миминошвили, Фарид Тагиев

Описание:
Это проект, рассказывающий о ключевых фигурах в руководстве Советского Союза в период с 1917 по 1953 годы. Феликс Дзержинский, Климент Ворошилов, Семен Буденный, Вячеслав Молотов, Андрей Жданов, Виктор Абакумов, Лаврентий Берия. Их имена известны всей стране и сегодня, но мало кто помнит, какими они вошли в историю, и что сделали для своего государства. Они находились в пучине гражданского противостояния и социальных потрясений, меняя ход истории. В их честь называли города, улицы и горные вершины, им возводили памятники, об их победах рассказывали в школах, но они не могли знать, что спустя годы их биографии подвергнутся тщательной редактуре, а все достижения предадутся забвению.



Релиз от: Алехаndr

Продолжительность: ~00:51:00 серия
Качество видео: WEB-DL

Видео: AVC/H.264, 1920x1080 (16:9), ~3023 Kbps
Аудио: AC3, 2 ch, 192 Kbps
Код: Выделить всё
Общее
Уникальный идентификатор                 : 292315239471099118237728405361573393000 (0xDBE9DE06B480BDFD9706CF8B9D667268)
Полное имя                               : F:\Страна Советов. Забытые вожди (2016).by.Алехаndr\Страна советов. Забытые вожди. Андрей Жданов.by.Алехаndr.mkv
Формат                                   : Matroska
Версия формата                           : Version 4 / Version 2
Размер файла                             : 1,18 Гбайт
Продолжительность                        : 51 м. 22 с.
Общий поток                              : 3280 Кбит/сек
Программа кодирования                    : Lavf57.25.100
Библиотека кодирования                   : Lavf57.25.100

Видео
Идентификатор                            : 1
Формат                                   : AVC
Формат/Информация                        : Advanced Video Codec
Профиль формата                          : High@L4
Параметр CABAC формата                   : Да
Параметр ReFrames формата                : 2 кадра
Идентификатор кодека                     : V_MPEG4/ISO/AVC
Продолжительность                        : 51 м. 22 с.
Битрейт                                  : 3023 Кбит/сек
Ширина                                   : 1920 пикселей
Высота                                   : 1080 пикселей
Соотношение сторон                       : 16:9
Режим частоты кадров                     : Постоянный
Частота кадров                           : 25,000 кадров/сек
Цветовое пространство                    : YUV
Субдискретизация насыщенности            : 4:2:0
Битовая глубина                          : 8 бит
Тип развёртки                            : Прогрессивная
Бит/(Пиксели*Кадры)                      : 0.058
Размер потока                            : 1,08 Гбайт (92%)
Default                                  : Да
Forced                                   : Нет
Цветовой диапазон                        : Limited
Основные цвета                           : BT.709
Характеристики трансфера                 : BT.709
Коэффициенты матрицы                     : BT.709
DURATION                                 : 00:51:22.240000000

Аудио
Идентификатор                            : 2
Формат                                   : AC-3
Формат/Информация                        : Audio Coding 3
Параметр Endianness формата              : Big
Идентификатор кодека                     : A_AC3
Продолжительность                        : 51 м. 22 с.
Вид битрейта                             : Постоянный
Битрейт                                  : 192 Кбит/сек
Каналы                                   : 2 канала
Расположение каналов                     : Front: L R
Частота                                  : 44,1 КГц
Частота кадров                           : 28,711 кадров/сек (1536 spf)
Битовая глубина                          : 16 бит
Метод сжатия                             : С потерями
Задержка видео                           : -40 мс.
Размер потока                            : 70,5 Мбайт (6%)
Язык                                     : unknown
ServiceKind/String                       : Complete Main
Default                                  : Да
Forced                                   : Нет
DURATION                                 : 00:51:22.205000000

Скриншоты:




Время раздачи: 24/7 (круглосуточно) (до появления первых 3-5 скачавших)
Не забывайте говорить Спасибо. Не уходите с раздачи!   
Торрент: Зарегистрирован [10 янв 2018, 17:32] Для скачивания .torrent
необходима регистрация
Или скачать с помощью
MediaGet
Статус:
Проверен
 
.torrent скачан: 1 раз
Размер: 9.45 ГБ (10 141 519 546 байт)
   Стать Автором раздачи
   
Цитата

Вернуться в Личности

Кто сейчас на конференции

Сейчас эту тему просматривают: нет зарегистрированных пользователей и гости: 1