Карлос. Дополнительные материалы / Carlos. Extras (1995-2004) BDRemux [H.264/1080p] [AVO]

 Статистика раздачи 
Размер: 13.3 ГБ   |  Зарегистрирован: 10 янв 2018, 17:32   |   .torrent скачан: 0 раз
Сидеров: 0  [ 0 байт/сек ]     Личеров: 0  [ 0 байт/сек ]  
  
Аватара пользователя
 
Раздал: 0 байт
Скачал: 0 байт
Ратио: Inf.
Сообщения: 182851
Стаж: 7 лет 8 месяцев
Откуда: Rossiya

Карлос. Дополнительные материалы / Carlos. Extras (1995-2004) BDRemux

Производство: Франция, Германия
Жанр: Документальный

Описание:
В релизе представлены три документальных фильма общей продолжительностью более трех часов. Эти фильмы были размещены на двухдисковом издании Criterion Edition 3-х серийного художественного фильма "Карлос" о международном террористе Ильиче Рамиресе Санчесе, также известном под псевдонимом Карлос.

Релиз от: RG NNM Club Video

Продолжительность: 00:38:32+00:58:32+01:28:34
Качество видео: BDRemux
Перевод: Авторский одноголосый закадровый (Ю.Медведев)
Субтитры: Английские

Видео: AVC/H.264, 1920x1080, ~10 Mbps
Аудио: AC3, 1 ch, 192 kbps - Русский (AVO, Ю. Медведев)
Аудио: AC3, 1 ch, 192 kbps - Французский, Немецкий (Оригинал)
Состав релиза:
Интервью с "Энджи" / Entretien avec "Angie" (1995)

Производство: Франция
Продолжительность: 00:38:32

Описание:
Интервью для французского телевидения, которое в 1995 г. телепродюссер Даниэль Леконт взял у немецкого леворадикального боевика Ханса-Иоахима Клейна, известного как Энджи. Как видно по представленным выдержкам из их беседы. Клейн на протяжении всего интервью был в маске. Леконт стал продюссером фильма Оливье Осайаса "Карлос"

Код: Выделить всё
General
Format                                   : Matroska
Format version                           : Version 4 / Version 2
File size                                : 2.67 GiB
Duration                                 : 38 min 32 s
Overall bit rate mode                    : Variable
Overall bit rate                         : 9 936 kb/s
Encoded date                             : UTC 2017-07-12 09:39:17
Writing application                      : mkvmerge v13.0.0 ('The Juggler') 64bit
Writing library                          : libebml v1.3.4 + libmatroska v1.4.5

Video
ID                                       : 1
Format                                   : AVC
Format/Info                              : Advanced Video Codec
Format profile                           : [url=http://nnm-club.name/mailto:High@L4.1]High@L4.1[/url]
Format settings, CABAC                   : Yes
Format settings, ReFrames                : 4 frames
Format settings, GOP                     : M=3, N=24
Codec ID                                 : V_MPEG4/ISO/AVC
Duration                                 : 38 min 32 s
Bit rate mode                            : Variable
Bit rate                                 : 9 549 kb/s
Maximum bit rate                         : 37.0 Mb/s
Width                                    : 1 920 pixels
Height                                   : 1 080 pixels
Display aspect ratio                     : 16:9
Frame rate mode                          : Constant
Frame rate                               : 29.970 (30000/1001) FPS
Color space                              : YUV
Chroma subsampling                       : 4:2:0
Bit depth                                : 8 bits
Scan type                                : MBAFF
Bits/(Pixel*Frame)                       : 0.154
Stream size                              : 2.57 GiB (96%)
Default                                  : Yes
Forced                                   : No

Audio #1
ID                                       : 2
Format                                   : AC-3
Format/Info                              : Audio Coding 3
Format settings, Endianness              : Big
Codec ID                                 : A_AC3
Duration                                 : 38 min 32 s
Bit rate mode                            : Constant
Bit rate                                 : 192 kb/s
Channel(s)                               : 1 channel
Channel positions                        : Front: C
Sampling rate                            : 48.0 kHz
Frame rate                               : 31.250 FPS (1536 spf)
Bit depth                                : 16 bits
Compression mode                         : Lossy
Stream size                              : 52.9 MiB (2%)
Language                                 : Russian
Service kind                             : Complete Main
Default                                  : Yes
Forced                                   : No

Audio #2
ID                                       : 3
Format                                   : AC-3
Format/Info                              : Audio Coding 3
Format settings, Endianness              : Big
Codec ID                                 : A_AC3
Duration                                 : 38 min 32 s
Bit rate mode                            : Constant
Bit rate                                 : 192 kb/s
Channel(s)                               : 1 channel
Channel positions                        : Front: C
Sampling rate                            : 48.0 kHz
Frame rate                               : 31.250 FPS (1536 spf)
Bit depth                                : 16 bits
Compression mode                         : Lossy
Stream size                              : 52.9 MiB (2%)
Language                                 : English
Service kind                             : Complete Main
Default                                  : No
Forced                                   : No

Text
ID                                       : 4
Format                                   : UTF-8
Codec ID                                 : S_TEXT/UTF8
Codec ID/Info                            : UTF-8 Plain Text
Duration                                 : 38 min 22 s
Bit rate                                 : 99 b/s
Count of elements                        : 663
Stream size                              : 28.1 KiB (0%)
Language                                 : English
Default                                  : Yes
Forced                                   : No

Menu
00:00:00.000                             : en:Chapter 1

Скриншоты:



Карлос. Террорист без границ / Carlos, terroriste sans frontieres (1997)

Производство: Франция
Продолжительность: 00:58:32

Описание:
Часовая документальная лента, впервые вышедшая в эфир в 1997 году во Франции, в цикле передач "Les brulures de l`histoire", освещает период жизни Ильича Рамиреса Санчеса, также известного, как Карлос, от его вступления в Народный Фронт освобождения Палестины в 1970 году, вплоть до его ареста в Париже в 1994 году.

Код: Выделить всё
General
Format                                   : Matroska
Format version                           : Version 4 / Version 2
File size                                : 4.23 GiB
Duration                                 : 58 min 32 s
Overall bit rate mode                    : Variable
Overall bit rate                         : 10.4 Mb/s
Encoded date                             : UTC 2017-07-12 09:40:14
Writing application                      : mkvmerge v13.0.0 ('The Juggler') 64bit
Writing library                          : libebml v1.3.4 + libmatroska v1.4.5

Video
ID                                       : 1
Format                                   : AVC
Format/Info                              : Advanced Video Codec
Format profile                           : [url=http://nnm-club.name/mailto:High@L4.1]High@L4.1[/url]
Format settings, CABAC                   : Yes
Format settings, ReFrames                : 4 frames
Codec ID                                 : V_MPEG4/ISO/AVC
Duration                                 : 58 min 32 s
Bit rate mode                            : Variable
Bit rate                                 : 9 967 kb/s
Maximum bit rate                         : 37.0 Mb/s
Width                                    : 1 920 pixels
Height                                   : 1 080 pixels
Display aspect ratio                     : 16:9
Frame rate mode                          : Constant
Frame rate                               : 29.970 (30000/1001) FPS
Color space                              : YUV
Chroma subsampling                       : 4:2:0
Bit depth                                : 8 bits
Scan type                                : MBAFF
Scan type, store method                  : Interleaved fields
Scan order                               : Top Field First
Bits/(Pixel*Frame)                       : 0.160
Stream size                              : 4.08 GiB (96%)
Default                                  : Yes
Forced                                   : No

Audio #1
ID                                       : 2
Format                                   : AC-3
Format/Info                              : Audio Coding 3
Format settings, Endianness              : Big
Codec ID                                 : A_AC3
Duration                                 : 58 min 32 s
Bit rate mode                            : Constant
Bit rate                                 : 192 kb/s
Channel(s)                               : 1 channel
Channel positions                        : Front: C
Sampling rate                            : 48.0 kHz
Frame rate                               : 31.250 FPS (1536 spf)
Bit depth                                : 16 bits
Compression mode                         : Lossy
Stream size                              : 80.4 MiB (2%)
Language                                 : Russian
Service kind                             : Complete Main
Default                                  : Yes
Forced                                   : No

Audio #2
ID                                       : 3
Format                                   : AC-3
Format/Info                              : Audio Coding 3
Format settings, Endianness              : Big
Codec ID                                 : A_AC3
Duration                                 : 58 min 32 s
Bit rate mode                            : Constant
Bit rate                                 : 192 kb/s
Channel(s)                               : 1 channel
Channel positions                        : Front: C
Sampling rate                            : 48.0 kHz
Frame rate                               : 31.250 FPS (1536 spf)
Bit depth                                : 16 bits
Compression mode                         : Lossy
Stream size                              : 80.4 MiB (2%)
Language                                 : English
Service kind                             : Complete Main
Default                                  : No
Forced                                   : No

Text
ID                                       : 4
Format                                   : UTF-8
Codec ID                                 : S_TEXT/UTF8
Codec ID/Info                            : UTF-8 Plain Text
Duration                                 : 57 min 31 s
Bit rate                                 : 102 b/s
Count of elements                        : 861
Stream size                              : 43.2 KiB (0%)
Language                                 : English
Default                                  : Yes
Forced                                   : No

Menu
00:00:00.000                             : en:Chapter 1

Скриншоты:


Французское посольство / Maison de France (2004)

Производство: Германия
Продолжительность: 01:28:34

Описание:
Этот 88-минутный фильм Стефана Сачуллы рассказывает об истории взрыва, который произошел в 1983 году во французском консульстве в Западном Берлине. Этот террористический акт, направленный против Французского правительства, был организован Иоаханесом Вейнрихом от имени Карлоса. В фильма Саччулы рассматриваются случайные жертвы террористического акта. Также фильм содержит интервью с бывшей женой Карлоса Магдаленой Копп и другими.

Код: Выделить всё
General
Format                                   : Matroska
Format version                           : Version 4 / Version 2
File size                                : 6.40 GiB
Duration                                 : 1 h 28 min
Overall bit rate mode                    : Variable
Overall bit rate                         : 10.3 Mb/s
Encoded date                             : UTC 2017-07-12 09:41:45
Writing application                      : mkvmerge v13.0.0 ('The Juggler') 64bit
Writing library                          : libebml v1.3.4 + libmatroska v1.4.5

Video
ID                                       : 1
Format                                   : AVC
Format/Info                              : Advanced Video Codec
Format profile                           : [url=http://nnm-club.name/mailto:High@L4.1]High@L4.1[/url]
Format settings, CABAC                   : Yes
Format settings, ReFrames                : 4 frames
Format settings, GOP                     : M=3, N=24
Codec ID                                 : V_MPEG4/ISO/AVC
Duration                                 : 1 h 28 min
Bit rate mode                            : Variable
Bit rate                                 : 9 950 kb/s
Maximum bit rate                         : 37.0 Mb/s
Width                                    : 1 920 pixels
Height                                   : 1 080 pixels
Display aspect ratio                     : 16:9
Frame rate mode                          : Constant
Frame rate                               : 29.970 (30000/1001) FPS
Color space                              : YUV
Chroma subsampling                       : 4:2:0
Bit depth                                : 8 bits
Scan type                                : MBAFF
Bits/(Pixel*Frame)                       : 0.160
Stream size                              : 6.16 GiB (96%)
Default                                  : Yes
Forced                                   : No

Audio #1
ID                                       : 2
Format                                   : AC-3
Format/Info                              : Audio Coding 3
Format settings, Endianness              : Big
Codec ID                                 : A_AC3
Duration                                 : 1 h 28 min
Bit rate mode                            : Constant
Bit rate                                 : 192 kb/s
Channel(s)                               : 2 channels
Channel positions                        : Front: L R
Sampling rate                            : 48.0 kHz
Frame rate                               : 31.250 FPS (1536 spf)
Bit depth                                : 16 bits
Compression mode                         : Lossy
Stream size                              : 122 MiB (2%)
Language                                 : Russian
Service kind                             : Complete Main
Default                                  : Yes
Forced                                   : No

Audio #2
ID                                       : 3
Format                                   : AC-3
Format/Info                              : Audio Coding 3
Format settings, Endianness              : Big
Codec ID                                 : A_AC3
Duration                                 : 1 h 28 min
Bit rate mode                            : Constant
Bit rate                                 : 192 kb/s
Channel(s)                               : 2 channels
Channel positions                        : Front: L R
Sampling rate                            : 48.0 kHz
Frame rate                               : 31.250 FPS (1536 spf)
Bit depth                                : 16 bits
Compression mode                         : Lossy
Stream size                              : 122 MiB (2%)
Language                                 : English
Service kind                             : Complete Main
Default                                  : No
Forced                                   : No

Text
ID                                       : 4
Format                                   : UTF-8
Codec ID                                 : S_TEXT/UTF8
Codec ID/Info                            : UTF-8 Plain Text
Duration                                 : 1 h 27 min
Bit rate                                 : 87 b/s
Count of elements                        : 1135
Stream size                              : 55.6 KiB (0%)
Language                                 : English
Default                                  : Yes
Forced                                   : No

Menu
00:00:00.000                             : en:Chapter 1
00:13:28.140                             : en:Chapter 2

Скриншоты:



Производство: Франция, Германия
Жанр: Документальный
Описание:
В релизе представлены три документальных фильма общей продолжительностью более трех часов. Эти фильмы были размещены на двухдисковом издании Criterion Edition 3-х серийного художественного фильма Карлос в качестве дополнительных материалов
Продолжительность: 00:38:32+00:58:32+01:28:34
Качество видео: BDRemux
Перевод: Авторский одноголосый закадровый (Ю.Медведев)
Субтитры: Английские


Скриншоты:


Перевод Ю.Медведева доступен благодаря частному заказу человека, пожелавшего остаться неизвестным. Все благодарности ему.


Время раздачи: 24/7 (до появления первых 3-5 скачавших)
Не забывайте говорить Спасибо. Не уходите с раздачи!   
Торрент: Зарегистрирован [10 янв 2018, 17:32] Для скачивания .torrent
необходима регистрация
Или скачать с помощью
MediaGet
Статус:
Проверен
 
.torrent скачан: 0 раз
Размер: 13.3 ГБ (14 284 814 783 байт)
   Стать Автором раздачи
   
Цитата
  • Похожие торренты
    Ответы
    Просмотры
    Последнее сообщение

Вернуться в Личности

Кто сейчас на конференции

Сейчас эту тему просматривают: нет зарегистрированных пользователей и гости: 1