Лаврентий Берия. Возвращение из небытия (2014) WEBRip (серии 1-2 из 2)

 Статистика раздачи 
Размер: 1.38 ГБ   |  Зарегистрирован: 10 янв 2018, 17:32   |   .torrent скачан: 0 раз
Сидеров: 0  [ 0 байт/сек ]     Личеров: 0  [ 0 байт/сек ]  
  
Аватара пользователя
 
Раздал: 0 байт
Скачал: 0 байт
Ратио: Inf.
Сообщения: 119089
Стаж: 7 лет 4 месяца 7 дней
Откуда: Rossiya

Лаврентий Берия. Возвращение из небытия (2014) WEBRip (серии 1-2 из 2)

Телекомпания: КиноР
Жанр: Документальный

Режиссер: Ю.П. Рогозин

Описание:
Одной из ключевых фигур сталинской эпохи является Лаврентий Павлович Берия. Именно он вместе со Сталиным остановил маховик ежовских репрессий, начал реабилитацию людей. Именно он показывал удивительные результаты в развитии экономики Закавказья. Именно он являлся отцом советского атомного оружия, наряду с учеными и разведчиками.
И именно его «назначили» на роль главного злодея эпохи. Кто назначил? Те, кто во главе с Хрущевым осуществили в СССР государственный переворот в 1953 году. Отравили Сталина, а через некоторое время и ликвидировали Берию.
О Берии мы знаем меньше всего. Нам оставляли только общие, причем обязательно негативные знания.
Предлагаю вашему вниманию документальный фильм Юрия П. Рогозина о Лаврентии Павловиче Берия. О государственном деятеле, который был несправедливо опозорен и очернен.

Продолжительность: 00:52:00 (каждая серия)
Качество видео: WEBRip

Перевод: Отсутствует
Язык: Русский

Видео: Xvid, 720x512, ~1799 Kbps
Аудио: MP3, 2 ch, ~103 kbps, VBR
Семпл: Скачать
Код:
Код: Выделить всё
General
Format                         : AVI
Format/Info                    : Audio Video Interleave
File size                      : 712 MiB
Duration                       : 51mn 59s
Overall bit rate mode          : Variable
Overall bit rate               : 1 914 Kbps
Writing application            : VirtualDubMod 1.5.4.1 (build 2178/release)
Writing library                : VirtualDubMod build 2178/release
Video
ID                             : 0
Format                         : MPEG-4 Visual
Format profile                 : Advanced [email protected]
Format settings, BVOP          : Yes
Format settings, QPel          : No
Format settings, GMC           : No warppoints
Format settings, Matrix        : Custom
Codec ID                       : XVID
Codec ID/Hint                  : XviD
Duration                       : 51mn 59s
Bit rate                       : 1 799 Kbps
Width                          : 720 pixels
Height                         : 512 pixels
Display aspect ratio           : 1.406
Frame rate                     : 25.000 fps
Color space                    : YUV
Chroma subsampling             : 4:2:0
Bit depth                      : 8 bits
Scan type                      : Progressive
Compression mode               : Lossy
Bits/(Pixel*Frame)             : 0.195
Stream size                    : 669 MiB (94%)
Writing library                : XviD 64
Audio
ID                             : 1
Format                         : MPEG Audio
Format version                 : Version 1
Format profile                 : Layer 3
Mode                           : Joint stereo
Mode extension                 : MS Stereo
Codec ID                       : 55
Codec ID/Hint                  : MP3
Duration                       : 51mn 59s
Bit rate mode                  : Variable
Bit rate                       : 103 Kbps
Nominal bit rate               : 128 Kbps
Channel count                  : 2 channels
Sampling rate                  : 48.0 KHz
Compression mode               : Lossy
Stream size                    : 38.3 MiB (5%)
Alignment                      : Aligned on interleaves
Interleave, duration           : 24 ms (0.60 video frame)
Interleave, preload duration   : 481 ms
Writing library                : LAME3.98r
Encoding settings              : -m j -V 4 -q 2 -lowpass 17 --abr 128

Скриншоты:



Время раздачи: 24/7 (до появления первых 3-5 скачавших)
   
Торрент: Зарегистрирован [10 янв 2018, 17:32] Скачать торрент Магнет ссылка
Скачать торрент
[ Размер 14.9 КБ / Просмотров 0 ]
Статус:
Проверен
 
.torrent скачан: 0 раз
Размер: 1.38 ГБ (1 481 224 192 байт)
   Стать Автором раздачи
 
 
Цитата
  • Похожие торренты
    Ответы
    Просмотры
    Последнее сообщение

Вернуться в Личности

Кто сейчас на конференции

Сейчас эту тему просматривают: нет зарегистрированных пользователей и гости: 1