Величайшая нерассказанная история Адольфа Гитлера / Adolf Hitler: The Greatest Story Never Told (2013) WEB-DLRip

 Статистика раздачи 
Размер: 5.13 ГБ   |  Зарегистрирован: 10 янв 2018, 17:32   |   .torrent скачан: 2061 раз
Сидеров: 4  [ 0 байт/сек ]     Личеров: 1  [ 0 байт/сек ]  
  
Аватара пользователя
 
Раздал: 0 байт
Скачал: 0 байт
Ратио: Inf.
Сообщения: 160606
Стаж: 7 лет 6 месяцев 4 дня
Откуда: Rossiya

Величайшая нерассказанная история Адольфа Гитлера / Adolf Hitler: The Greatest Story Never Told (2013) WEB-DLRip

Телекомпания: США, TruthWillOut Films
Жанр: Документальный, история, война, биография

Режиссер: Дэннис Уайз

Описание:
Фильм о жизни и деятельности Адольфа Гитлера.
Начиная с середины 20-го века, мир слышал лишь об одной стороне невероятной истории. Истории мальчика из обычной семьи, который мечтал стать художником. Но вместо этого стал бродягой.
Однако судьба уготовила ему не забвение, а подъем до высочайших высот власти. И в конечном итоге- роль одного из самых влиятельных людей за всю историю человечества.
И вот впервые перед вами подлинная, и основанная только на фактах история, которые многие считают величайшей нерассказанной историей!
Фильм смонтирован из фрагментов документальных и художественных фильмов.

ВНИМАНИЕ!!! Фильм содержит сцены жестокости и насилия!!
Не рекомендуется для просмотра детям, беременным и людям с неустойчивой психикой!!


Релиз от: alf62
Продолжительность: 05:57:41
Качество видео: WEB-DLRip
Перевод: Одноголосый закадровый

Видео: Xvid, 720x400, ~1850 Kbps
Аудио: AC3, 2 ch, 192 Kbps
Код: Выделить всё
Adolf.Hitler.The.Greatest.Story.Never.Told.2013.XviD.WEB-DLRip.alf62.avi
Format                      : AVI
Format/Info                 : Audio Video Interleave
Format profile              : OpenDML
File size                   : 5.13 GiB
Duration                    : 5 h 57 min
Overall bit rate            : 2 053 kb/s
Writing library             : Boilsoft Joiner build 2411/release

Video
ID                          : 0
Format                      : MPEG-4 Visual
Format profile              : Advanced [email protected]
Format settings, BVOP       : 2
Format settings, QPel       : No
Format settings, GMC        : No warppoints
Format settings, Matrix     : Default (H.263)
Codec ID                    : XVID
Codec ID/Hint               : XviD
Duration                    : 5 h 57 min
Bit rate                    : 1 850 kb/s
Width                       : 720 pixels
Height                      : 400 pixels
Display aspect ratio        : 16:9
Frame rate                  : 29.970 (30000/1001) FPS
Original frame rate         : 1.371 FPS
Color space                 : YUV
Chroma subsampling          : 4:2:0
Bit depth                   : 8 bits
Scan type                   : Progressive
Compression mode            : Lossy
Bits/(Pixel*Frame)          : 0.214
Stream size                 : 4.62 GiB (90%)
Writing library             : XviD 73

Audio
ID                          : 1
Format                      : AC-3
Format/Info                 : Audio Coding 3
Format settings, Endianness : Big
Codec ID                    : 2000
Duration                    : 5 h 57 min
Bit rate mode               : Constant
Bit rate                    : 192 kb/s
Channel(s)                  : 2 channels
Channel positions           : Front: L R
Sampling rate               : 48.0 kHz
Frame rate                  : 31.250 FPS (1536 spf)
Bit depth                   : 16 bits
Compression mode            : Lossy
Stream size                 : 491 MiB (9%)
Alignment                   : Split accross interleaves
Interleave, duration        : 33  ms (1.00 video frame)
Interleave, preload duratio : 500  ms
Service kind                : Complete Main

Скриншоты:









Время раздачи: до появления первых 3-5 скачавших
   
Торрент: Зарегистрирован [10 янв 2018, 17:32] Скачать торрент Магнет ссылка
Скачать торрент
[ Размер 13.87 КБ / Просмотров 15 ]
Статус:
Проверен
 
.torrent скачан: 2061 раз
Размер: 5.13 ГБ (5 507 117 056 байт)
   Стать Автором раздачи
 
 
Цитата
  • Похожие торренты
    Ответы
    Просмотры
    Последнее сообщение

Вернуться в Личности

Кто сейчас на конференции

Сейчас эту тему просматривают: нет зарегистрированных пользователей и гости: 1