Анатолий Яцков. Взломать проект «Манхэттен» (2016) SATRip

 Статистика раздачи 
Размер: 631.84 МБ   |  Зарегистрирован: 10 янв 2018, 17:31   |   .torrent скачан: 0 раз
Сидеров: 2  [ 0 байт/сек ]     Личеров: 0  [ 0 байт/сек ]  
  
Аватара пользователя
 
Раздал: 0 байт
Скачал: 0 байт
Ратио: Inf.
Сообщения: 182851
Стаж: 7 лет 8 месяцев
Откуда: Rossiya

Анатолий Яцков. Взломать проект «Манхэттен» (2016) SATRip

Телекомпания: ВГТРК
Жанр: Документальный, биография, история, спецслужбы

Описание:
Фильм о работе советского разведчика Анатолия Яцкова. Он добывал расчёты, чертежи, документы и другую бесценную информацию по американскому «Манхэттенскому проекту» - строительству заводов по производству оружейного урана, плутония и непосредственно атомной бомбы.

Релиз от: alf62
Продолжительность: 00:44:08
Качество видео: SATRip

Видео: Xvid, 720x384, ~1800 Kbps
Аудио: AC3, 2 ch, 192 Kbps
Код: Выделить всё
Анатолий.Яцков.Взломать.проект.«Манхэттен».2016.XviD.SATRip.alf62.avi
Format                      : AVI
Format/Info                 : Audio Video Interleave
File size                   : 632 MiB
Duration                    : 44 min 7 s
Overall bit rate            : 2 002 kb/s
Writing application         : VirtualDubMod 1.5.10.3 | [url=http://www.virtualdub-fr.org]www.virtualdub-fr.org[/url] || (build 2550/release)
Writing library             : VirtualDubMod build 2550/release

Video
ID                          : 0
Format                      : MPEG-4 Visual
Format profile              : Advanced Simple@L5
Format settings, BVOP       : 2
Format settings, QPel       : No
Format settings, GMC        : No warppoints
Format settings, Matrix     : Default (MPEG)
Codec ID                    : XVID
Codec ID/Hint               : XviD
Duration                    : 44 min 7 s
Bit rate                    : 1 800 kb/s
Width                       : 720 pixels
Height                      : 384 pixels
Display aspect ratio        : 1.85:1
Frame rate                  : 25.000 FPS
Color space                 : YUV
Chroma subsampling          : 4:2:0
Bit depth                   : 8 bits
Scan type                   : Progressive
Compression mode            : Lossy
Bits/(Pixel*Frame)          : 0.260
Stream size                 : 568 MiB (90%)
Writing library             : XviD 73

Audio
ID                          : 1
Format                      : AC-3
Format/Info                 : Audio Coding 3
Format settings, Endianness : Big
Codec ID                    : 2000
Duration                    : 44 min 7 s
Bit rate mode               : Constant
Bit rate                    : 192 kb/s
Channel(s)                  : 2 channels
Channel positions           : Front: L R
Sampling rate               : 48.0 kHz
Frame rate                  : 31.250 FPS (1536 spf)
Bit depth                   : 16 bits
Compression mode            : Lossy
Stream size                 : 60.6 MiB (10%)
Alignment                   : Split accross interleaves
Interleave, duration        : 40  ms (1.00 video frame)
Interleave, preload duratio : 500  ms
Service kind                : Complete Main

Скриншоты:





Время раздачи: до появления первых 3-5 скачавших
Не забывайте говорить Спасибо. Не уходите с раздачи!   
Торрент: Зарегистрирован [10 янв 2018, 17:31] Для скачивания .torrent
необходима регистрация
Или скачать с помощью
MediaGet
Статус:
Проверен
 
.torrent скачан: 0 раз
Размер: 631.84 МБ (662 530 048 байт)
   Стать Автором раздачи
   
Цитата

Вернуться в Личности

Кто сейчас на конференции

Сейчас эту тему просматривают: нет зарегистрированных пользователей и гости: 1