Люди сотворившие ХХ век (У истоков ХХ века) / The 101 Who Made The Twentieth Century (2016) HDTVRip [H.264/720p-LQ] (8 серий из 8)

 Статистика раздачи 
Размер: 10.85 ГБ   |  Зарегистрирован: 10 янв 2018, 17:31   |   .torrent скачан: 0 раз
Сидеров: 0  [ 0 байт/сек ]     Личеров: 0  [ 0 байт/сек ]  
  
Аватара пользователя
 
Раздал: 0 байт
Скачал: 0 байт
Ратио: Inf.
Сообщения: 176511
Стаж: 7 лет 7 месяцев 9 дней
Откуда: Rossiya

Люди сотворившие ХХ век (У истоков ХХ века) / The 101 Who Made The Twentieth Century (2016) HDTVRip [H.264/720p-LQ] (8 серий из 8)

Производство: Австралия, WildBear Entertainment, DRG History
Жанр: Документальный, познавательный, история

Описание:
ХХ век был эпохой удивительных перемен: несказанных ужасов и поразительных научных открытий. Это столетие, в котором империи прошлого рассыпались, чтобы освободить место для новых сверхдержав и новой эпохи. Столетие, в котором мир был, втянут в одну войну за другой.
Но где радио, кино, телевидение, автомобили, самолеты и, наконец, компьютеры привлекли нас ближе друг к другу, чем в любой другой момент в истории. В ходе этого столетия, мы показали, на что поистине способны: на богатое творческое воображение, предательское желание вредить и угнетать, стремление бороться с бременем устоявшегося статус-кво. Необходимость понять вселенную и улучшить нашу жизнь.
Это был век, созданный лидерами и революционерами, ученными и мыслителями, деятелями искусства, кумирами, героями и злодеями. Это был век беспрецедентных перемен. Мы вспомним сто одну личность, которые помогли создать мир, в котором мы живем, и чьи достижения соткали гобелен нашей истории.
В этом сериале мы ведем отсчет (от ста одного до одного) имен тех, кто, по мнению историков, сильнее всего повлиял на это столетие, на наш мир и наш образ жизни.

Релиз от: alf62

Продолжительность: 8 x ~ 00:49:58
Качество видео: HDTVRip
Перевод: Дублированный

Видео: AVC/H.264, 1280x720, ~3500 kbps
Аудио 1: AC3, 2 ch, 192 Kbps | Русский
Аудио 2: AC3, 2 ch, 192 Kbps | Английский
Серия 1, эпизоды 101-89
Маргарет Тэтчер, Сальвадор Дали, Билли Грэм, Пабло Эскобар, Роджер Баннистер, Бернард Лумис, Мария Кюри, Эрвин Роммель, Ричард Брэнсон, Кристиан Диор, Чак Берри, Лех Валенса, Мэрлин Монро

Серия 2, эпизоды 88-76
Рут Хэндлер, Франсиско Франко, Надя Команечи, Далай-лама XIV, Мадонна, Хайле Селассие, Джозеф «Джо» Шустер и Джерри Сигел, Ахмед Заки Ямани, Гульельмо Маркони, Бетти Фридан, Генри Киссинджер, Орсон Уэллс, Серхан Серхан

Серия 3, эпизоды 75-62
Чарльз Мэнсон, Эва Перон, Иоанн Павел II, Жорж Мельес, Владимир Ленин, Пеле, Хо Ши Мин, Дональд Брэдмен, Артур Чарльз Кларк, Элена Рубинштейн, Фило Фарнсуорт, Ричард Никсон, Джозефина Бейкер

Серия 4, эпизоды 62-50
Элвис Пресли, Оле Кирк Кристиансен, Беназир Бхутто, Тим Бернерс-Ли, Мартина Навратилова, Джордж Вашингтон Карвер, Михаил Горбачев, Амелия Эрхарт, Гамаль Абдель Насер, Чарли Чаплин, Эрнесто Че Гевара, Эдвин Хаббл, Дуайт Эйзенхауэр

Серия 5, эпизоды 49-37
Коко Шанель, Мохандас «Махатма» Ганди, Алан Тьюринг, Ахмад Шах Масуд, Рэй Крок, Джейн Гудолл, Ясир Арафат, Альфред Хичкок, Боб Дилан, Билл Гейтс, Диана, принцесса Уэльская, Ригоберта Менчу, Фидель Кастро

Серия 6, эпизоды 36-24
Дэвид Боуи, Давид Бен-Гурион, Говард Хьюз, королева Елизавета II, Джесси Оуэнс, Рухолла Хомейни, Уолт Дисней, Никола Тесла, Бенито Муссолини, Джонас Солк, Роберт Оппенгеймер, Маргарет Сэнгер, Иосиф Сталин

Серия 7, эпизоды 23-11
Мохаммед Али, Джон Фицджералд Кеннеди, Пабло Пикассо, Розалинд Франклин, Юрий Гагарин, Мао Цзэдун, Стив Возняк и Стив Джобс, Говард Флори, Мартин Лютер Кинг, Томас Эдисон, Вида Гольдштейн, Адольф Гитлер, Орвилл и Уилбур Райт

Серия 8, эпизоды 10-1
Энди Уорхол, Огюст и Луи Люмьер, Элеонора Рузвельт, «Битлз», Нельсон Мандела, Франклин Делано Рузвельт, Нил Армстронг, Уинстон Черчилль, Альберт Эйнштейн, Карл и Берта Бенц
Код: Выделить всё
Люди.сотворившие.ХХ.век.(2.серия).Эпизоды.88-76.AVC.720p.x264.HDTVRip.alf62 (1).mkv
Формат                                   : Matroska
Версия формата                           : Version 4 / Version 2
Размер файла                             : 1,36 Гбайт
Продолжительность                        : 49 м.
Общий поток                              : 3883 Кбит/сек
Дата кодирования                         : UTC 2017-05-23 02:47:46
Программа кодирования                    : mkvmerge v6.0.0 ('Coming Up For Air') built on Jan 20 2013 09:52:00
Библиотека кодирования                   : libebml v1.3.0 + libmatroska v1.4.0

Видео
Идентификатор                            : 1
Формат                                   : AVC
Формат/Информация                        : Advanced Video Codec
Профиль формата                          : [url=http://nnm-club.name/mailto:High@L4.1]High@L4.1[/url]
Параметр CABAC формата                   : Да
Параметр ReFrames формата                : 4 кадра
Идентификатор кодека                     : V_MPEG4/ISO/AVC
Продолжительность                        : 49 м.
Битрейт                                  : 3500 Кбит/сек
Ширина                                   : 1280 пикселей
Высота                                   : 720 пикселей
Соотношение сторон                       : 16:9
Режим частоты кадров                     : Постоянный
Частота кадров                           : 25,000 кадров/сек
Цветовое пространство                    : YUV
Субдискретизация насыщенности            : 4:2:0
Битовая глубина                          : 8 бит
Тип развёртки                            : Прогрессивная
Бит/(Пиксели*Кадры)                      : 0.152
Размер потока                            : 1,19 Гбайт (88%)
Библиотека кодирования                   : x264 core 146 r2538 121396c
Настройки программы                      : cabac=1 / ref=4 / deblock=1:-2:-2 / analyse=0x3:0x113 / me=umh / subme=10 / psy=1 / psy_rd=1.00:0.00 / mixed_ref=1 / me_range=32 / chroma_me=1 / trellis=2 / 8x8dct=1 / cqm=0 / deadzone=21,11 / fast_pskip=0 / chroma_qp_offset=-2 / threads=6 / lookahead_threads=1 / sliced_threads=0 / nr=0 / decimate=0 / interlaced=0 / bluray_compat=0 / constrained_intra=0 / bframes=7 / b_pyramid=2 / b_adapt=2 / b_bias=0 / direct=3 / weightb=1 / open_gop=0 / weightp=2 / keyint=250 / keyint_min=25 / scenecut=40 / intra_refresh=0 / rc_lookahead=40 / rc=2pass / mbtree=0 / bitrate=3500 / ratetol=1.0 / qcomp=0.60 / qpmin=0 / qpmax=69 / qpstep=4 / cplxblur=20.0 / qblur=0.5 / vbv_maxrate=14000 / vbv_bufsize=14000 / nal_hrd=none / filler=0 / ip_ratio=1.40 / pb_ratio=1.30 / aq=1:0.80
Default                                  : Да
Forced                                   : Нет

Аудио #1
Идентификатор                            : 2
Формат                                   : AC-3
Формат/Информация                        : Audio Coding 3
Расширение режима                        : CM (complete main)
Параметр Endianness формата              : Big
Идентификатор кодека                     : A_AC3
Продолжительность                        : 49 м.
Вид битрейта                             : Постоянный
Битрейт                                  : 192 Кбит/сек
Каналы                                   : 2 канала
Расположение каналов                     : Front: L R
Частота                                  : 48,0 КГц
Битовая глубина                          : 16 бит
Метод сжатия                             : С потерями
Размер потока                            : 68,6 Мбайт (5%)
Default                                  : Нет
Forced                                   : Нет

Аудио #2
Идентификатор                            : 3
Формат                                   : AC-3
Формат/Информация                        : Audio Coding 3
Расширение режима                        : CM (complete main)
Параметр Endianness формата              : Big
Идентификатор кодека                     : A_AC3
Продолжительность                        : 49 м.
Вид битрейта                             : Постоянный
Битрейт                                  : 192 Кбит/сек
Каналы                                   : 2 канала
Расположение каналов                     : Front: L R
Частота                                  : 48,0 КГц
Битовая глубина                          : 16 бит
Метод сжатия                             : С потерями
Размер потока                            : 68,6 Мбайт (5%)
Default                                  : Да

Скриншоты:



Время раздачи: до появления первых 3-5 скачавших
Не забывайте говорить Спасибо. Не уходите с раздачи!   
Торрент: Зарегистрирован [10 янв 2018, 17:31] Для скачивания .torrent
необходима регистрация
Или скачать с помощью
MediaGet
Статус:
Проверен
 
.torrent скачан: 0 раз
Размер: 10.85 ГБ (11 645 643 236 байт)
   Стать Автором раздачи
   
Цитата

Вернуться в Личности

Кто сейчас на конференции

Сейчас эту тему просматривают: нет зарегистрированных пользователей и гости: 1