Люди сотворившие ХХ век (У истоков ХХ века) / The 101 Who Made The Twentieth Century (2016) HDTVRip (8 серий из 8)

 Статистика раздачи 
Размер: 6.42 ГБ   |  Зарегистрирован: 10 янв 2018, 17:31   |   .torrent скачан: 3 раз
Сидеров: 1  [ 0 байт/сек ]     Личеров: 0  [ 0 байт/сек ]  
  
Аватара пользователя
 
Раздал: 0 байт
Скачал: 0 байт
Ратио: Inf.
Сообщения: 182851
Стаж: 7 лет 8 месяцев
Откуда: Rossiya

Люди сотворившие ХХ век (У истоков ХХ века) / The 101 Who Made The Twentieth Century (2016) HDTVRip (8 серий из 8)

Производство: Австралия, WildBear Entertainment, DRG History
Жанр: Документальный, познавательный, история

Описание:
ХХ век был эпохой удивительных перемен: несказанных ужасов и поразительных научных открытий. Это столетие, в котором империи прошлого рассыпались, чтобы освободить место для новых сверхдержав и новой эпохи. Столетие, в котором мир был, втянут в одну войну за другой.
Но где радио, кино, телевидение, автомобили, самолеты и, наконец, компьютеры привлекли нас ближе друг к другу, чем в любой другой момент в истории. В ходе этого столетия, мы показали, на что поистине способны: на богатое творческое воображение, предательское желание вредить и угнетать, стремление бороться с бременем устоявшегося статус-кво. Необходимость понять вселенную и улучшить нашу жизнь.
Это был век, созданный лидерами и революционерами, ученными и мыслителями, деятелями искусства, кумирами, героями и злодеями. Это был век беспрецедентных перемен. Мы вспомним сто одну личность, которые помогли создать мир, в котором мы живем, и чьи достижения соткали гобелен нашей истории.
В этом сериале мы ведем отсчет (от ста одного до одного) имен тех, кто, по мнению историков, сильнее всего повлиял на это столетие, на наш мир и наш образ жизни.

Релиз от: alf62

Продолжительность: 8 x ~ 00:49:58
Качество видео: HDTVRip
Перевод: Дублированный

Видео: Xvid, 720x400, ~1900 kbps
Аудио 1: AC3, 2 ch, 192 Kbps | Русский
Аудио 2: AC3, 2 ch, 192 Kbps | Английский
Серия 1, эпизоды 101-89
Маргарет Тэтчер, Сальвадор Дали, Билли Грэм, Пабло Эскобар, Роджер Баннистер, Бернард Лумис, Мария Кюри, Эрвин Роммель, Ричард Брэнсон, Кристиан Диор, Чак Берри, Лех Валенса, Мэрлин Монро

Серия 2, эпизоды 88-76
Рут Хэндлер, Франсиско Франко, Надя Команечи, Далай-лама XIV, Мадонна, Хайле Селассие, Джозеф «Джо» Шустер и Джерри Сигел, Ахмед Заки Ямани, Гульельмо Маркони, Бетти Фридан, Генри Киссинджер, Орсон Уэллс, Серхан Серхан

Серия 3, эпизоды 75-62
Чарльз Мэнсон, Эва Перон, Иоанн Павел II, Жорж Мельес, Владимир Ленин, Пеле, Хо Ши Мин, Дональд Брэдмен, Артур Чарльз Кларк, Элена Рубинштейн, Фило Фарнсуорт, Ричард Никсон, Джозефина Бейкер

Серия 4, эпизоды 62-50
Элвис Пресли, Оле Кирк Кристиансен, Беназир Бхутто, Тим Бернерс-Ли, Мартина Навратилова, Джордж Вашингтон Карвер, Михаил Горбачев, Амелия Эрхарт, Гамаль Абдель Насер, Чарли Чаплин, Эрнесто Че Гевара, Эдвин Хаббл, Дуайт Эйзенхауэр

Серия 5, эпизоды 49-37
Коко Шанель, Мохандас «Махатма» Ганди, Алан Тьюринг, Ахмад Шах Масуд, Рэй Крок, Джейн Гудолл, Ясир Арафат, Альфред Хичкок, Боб Дилан, Билл Гейтс, Диана, принцесса Уэльская, Ригоберта Менчу, Фидель Кастро

Серия 6, эпизоды 36-24
Дэвид Боуи, Давид Бен-Гурион, Говард Хьюз, королева Елизавета II, Джесси Оуэнс, Рухолла Хомейни, Уолт Дисней, Никола Тесла, Бенито Муссолини, Джонас Солк, Роберт Оппенгеймер, Маргарет Сэнгер, Иосиф Сталин

Серия 7, эпизоды 23-11
Мохаммед Али, Джон Фицджералд Кеннеди, Пабло Пикассо, Розалинд Франклин, Юрий Гагарин, Мао Цзэдун, Стив Возняк и Стив Джобс, Говард Флори, Мартин Лютер Кинг, Томас Эдисон, Вида Гольдштейн, Адольф Гитлер, Орвилл и Уилбур Райт

Серия 8, эпизоды 10-1
Энди Уорхол, Огюст и Луи Люмьер, Элеонора Рузвельт, «Битлз», Нельсон Мандела, Франклин Делано Рузвельт, Нил Армстронг, Уинстон Черчилль, Альберт Эйнштейн, Карл и Берта Бенц
Код: Выделить всё
Люди.сотворившие.ХХ.век.(2.серия).Эпизоды.88-76.XviD.HDTVRip.alf62.avi
Формат                                   : AVI
Формат/Информация                        : Audio Video Interleave
Размер файла                             : 822 Мбайт
Продолжительность                        : 49 м.
Общий поток                              : 2298 Кбит/сек
Программа кодирования                    : VirtualDubModRus 1.5.10.2 (build 2542/release)
Библиотека кодирования                   : VirtualDubMod build 2542/release

Видео
Идентификатор                            : 0
Формат                                   : MPEG-4 Visual
Профиль формата                          : Advanced Simple@L5
Параметр BVOP формата                    : 2
Параметр QPel формата                    : Нет
Параметр GMC формата                     : Без точки перехода
Параметр матрицы формата                 : Default (MPEG)
Идентификатор кодека                     : XVID
Идентификатор кодека/Подсказка           : XviD
Продолжительность                        : 49 м.
Битрейт                                  : 1900 Кбит/сек
Ширина                                   : 720 пикселей
Высота                                   : 400 пикселей
Соотношение сторон                       : 16:9
Частота кадров                           : 25,000 кадров/сек
Цветовое пространство                    : YUV
Субдискретизация насыщенности            : 4:2:0
Битовая глубина                          : 8 бит
Тип развёртки                            : Прогрессивная
Метод сжатия                             : С потерями
Бит/(Пиксели*Кадры)                      : 0.264
Размер потока                            : 679 Мбайт (83%)
Библиотека кодирования                   : XviD 73

Аудио #1
Идентификатор                            : 1
Формат                                   : AC-3
Формат/Информация                        : Audio Coding 3
Расширение режима                        : CM (complete main)
Параметр Endianness формата              : Big
Идентификатор кодека                     : 2000
Продолжительность                        : 49 м.
Вид битрейта                             : Постоянный
Битрейт                                  : 192 Кбит/сек
Каналы                                   : 2 канала
Расположение каналов                     : Front: L R
Частота                                  : 48,0 КГц
Битовая глубина                          : 16 бит
Метод сжатия                             : С потерями
Размер потока                            : 68,6 Мбайт (8%)
Выравнивание                             : Разделение по промежуткам
Продолжительность промежутка             : 40  мс. (1,00 видеокадр)
Время предзагрузки промежутка            : 500  мс.

Аудио #2
Идентификатор                            : 2
Формат                                   : AC-3
Формат/Информация                        : Audio Coding 3
Расширение режима                        : CM (complete main)
Параметр Endianness формата              : Big
Идентификатор кодека                     : 2000
Продолжительность                        : 49 м.
Вид битрейта                             : Постоянный
Битрейт                                  : 192 Кбит/сек
Каналы                                   : 2 канала
Расположение каналов                     : Front: L R
Частота                                  : 48,0 КГц
Битовая глубина                          : 16 бит
Метод сжатия                             : С потерями
Размер потока                            : 68,6 Мбайт (8%)
Выравнивание                             : Разделение по промежуткам
Продолжительность промежутка             : 40  мс. (1,00 видеокадр)
Время предзагрузки промежутка            : 500  мс.

Скриншоты:





Время раздачи: до появления первых 3-5 скачавших
Не забывайте говорить Спасибо. Не уходите с раздачи!   
Торрент: Зарегистрирован [10 янв 2018, 17:31] Для скачивания .torrent
необходима регистрация
Или скачать с помощью
MediaGet
Статус:
Проверен
 
.torrent скачан: 3 раз
Размер: 6.42 ГБ (6 892 333 056 байт)
   Стать Автором раздачи
   
Цитата

Вернуться в Личности

Кто сейчас на конференции

Сейчас эту тему просматривают: нет зарегистрированных пользователей и гости: 1