Дисней / Walt Disney (2015) SATRip (части 1-4 из 4)

 Статистика раздачи 
Размер: 2.11 ГБ   |  Зарегистрирован: 10 янв 2018, 17:31   |   .torrent скачан: 1 раз
Сидеров: 0  [ 0 байт/сек ]     Личеров: 4  [ 0 байт/сек ]  
  
Аватара пользователя
 
Раздал: 0 байт
Скачал: 0 байт
Ратио: Inf.
Сообщения: 142402
Стаж: 7 лет 5 месяцев 5 дней
Откуда: Rossiya
СообщениеДобавлено: 14 май 2017, 16:23


Дисней / Walt Disney (2015) SATRip (части 1-4 из 4)

Производство: США, WGBH
Жанр: Документальный, биографический

Режиссер: Джеймс Данфорд
Участники:
Художник-мультипликатор: Уолт Дисней
Писатель: Ричард Шикел, Дон Хан, Рон Саскинд
Биограф: Нил Геблер
Киновед: Сара Нильсен, Дуглас Бродд, Эрик Смудин
Историк: Стивен Уотс, Ненси Коэн
Искусствовед: Карменита Хиггенботем
Дизайнер: Боб Гарр, Ролли Крамп

Описание:
«Дисней» это четырехсерийный сериал о создателе главной мировой фабрики детских грез. Фильм дает уникальную возможность узнать в деталях о том, как формировалось видение одного из главных аниматоров в мировой истории. Был ли он карьеристом, озабоченным получением сверхприбыли, или романтиком, подверженным заблуждениям, как любой обычный человек? И как вышло, что именно он основал индустрию по продаже и воспроизводству детских сказок?

Релиз от: рип skorpionN
Продолжительность: 00:51:27 + 01:01:12 + 00:53:05 + 00:57:38
Качество видео: SATRip
Перевод: Двуголосый закадровый, профессиональный
Субтитры: отсутствуют

Видео: AVC/H.264, [email protected], ~985-1157 Kbps
Аудио: MP3, 2 ch, 192 Kbps
Код: Выделить всё
Общее
Идентификатор                            : 1 (0x1)
Полное имя                               : F:\КИНО\Walt Disney\02_Walt Disney.ts
Формат                                   : MPEG-TS
Размер файла                             : 543 Мбайт
Продолжительность                        : 1 ч. 1 м.
Режим общего битрейта                    : Переменный
Общий поток                              : 1241 Кбит/сек

Видео
Идентификатор                            : 210 (0xD2)
Идентификатор меню                       : 1310 (0x51E)
Формат                                   : AVC
Формат/Информация                        : Advanced Video Codec
Профиль формата                          : [email protected]
Параметр CABAC формата                   : Да
Параметр ReFrames формата                : 4 кадра
Идентификатор кодека                     : 27
Продолжительность                        : 1 ч. 1 м.
Битрейт                                  : 985 Кбит/сек
Ширина                                   : 720 пикселей
Высота                                   : 576 пикселей
Соотношение сторон                       : 4:3
Частота кадров                           : 25,000 кадров/сек
Стандарт вещания                         : Component
Цветовое пространство                    : YUV
Субдискретизация насыщенности            : 4:2:0
Битовая глубина                          : 8 бит
Тип развёртки                            : Чересстрочная
Метод сохранения типа развёртки          : Раздельные поля
Порядок развёртки                        : Верхнее поле первое
Бит/(Пиксели*Кадры)                      : 0.095
Размер потока                            : 431 Мбайт (79%)
Цветовой диапазон                        : Limited
Основные цвета                           : BT.601 PAL
Характеристики трансфера                 : BT.470 System B, BT.470 System G
Коэффициенты матрицы                     : BT.601

Аудио
Идентификатор                            : 310 (0x136)
Идентификатор меню                       : 1310 (0x51E)
Формат                                   : MPEG Audio
Версия формата                           : Version 1
Профиль формата                          : Layer 2
Идентификатор кодека                     : 3
Продолжительность                        : 1 ч. 1 м.
Вид битрейта                             : Постоянный
Битрейт                                  : 192 Кбит/сек
Каналы                                   : 2 канала
Частота                                  : 48,0 КГц
Метод сжатия                             : С потерями
Задержка видео                           : -120 мс.
Размер потока                            : 84,1 Мбайт (15%)
Язык                                     : Russian

Скриншоты:



Время раздачи: с 18:00 до 23:00 (до появления первых 3-5 скачавших)
   
Торрент: Зарегистрирован [10 янв 2018, 17:31] Скачать торрент Магнет ссылка
Скачать торрент
[ Размер 11.49 КБ / Просмотров 5 ]
Статус:
Проверен
 
.torrent скачан: 1 раз
Размер: 2.11 ГБ (2 261 808 448 байт)
   Стать Автором раздачи
 
 
Цитата

Вернуться в Личности

Кто сейчас на конференции

Сейчас эту тему просматривают: нет зарегистрированных пользователей и гости: 1