Мао в цвете. Уроки тирании / Mao in color. A study in tyranny (2015) HDTVRip

 Статистика раздачи 
Размер: 664.39 МБ   |  Зарегистрирован: 10 янв 2018, 17:31   |   .torrent скачан: 1 раз
Сидеров: 0  [ 0 байт/сек ]     Личеров: 0  [ 0 байт/сек ]  
  
Аватара пользователя
 
Раздал: 0 байт
Скачал: 0 байт
Ратио: Inf.
Сообщения: 111963
Стаж: 7 лет 3 месяца 9 дней
Откуда: Rossiya

Мао в цвете. Уроки тирании / Mao in color. A study in tyranny (2015) HDTVRip

Телекомпания: Великобритания
Жанр: Документальный, история, биография

Описание:
В этой передаче мы увидим цветной фильм, найденный в архивах, о человеке, который ценой миллионов жизней своего народа создал современный Китай. Для этого фильма используется материал, который никогда и нигде не был обнародован, в нём присутствует уникальная съёмка бывшего коммунистического мира. В материале речь пойдёт о периоде поздних 40-х, когда была гражданская война против Гоминьдана Чана Кайши, о временах правления Мао Цзэдуна и его кончине в 70-х.

Релиз от: alf62

Продолжительность: 00:44:12
Качество видео: HDTVRip

Перевод: Дублированный

Видео: Xvid, 720х400, ~1900 Kbps
Аудио: AC3, 2 ch, 192 Kbps, CBR
Код: выделить все
Общее
Полное имя                               : E:\Запись\МАО\Мао.в.цвете.2015.XviD.SATRip.alf62.avi
Формат                                   : AVI
Формат/Информация                        : Audio Video Interleave
Размер файла                             : 664 Мбайт
Продолжительность                        : 44 м.
Общий поток                              : 2102 Кбит/сек
Программа кодирования                    : VirtualDubModRus 1.5.10.2 (build 2542/release)
Библиотека кодирования                   : VirtualDubMod build 2542/release

Видео
Идентификатор                            : 0
Формат                                   : MPEG-4 Visual
Профиль формата                          : Advanced [email protected]
Параметр BVOP формата                    : 2
Параметр QPel формата                    : Нет
Параметр GMC формата                     : Без точки перехода
Параметр матрицы формата                 : Default (MPEG)
Идентификатор кодека                     : XVID
Идентификатор кодека/Подсказка           : XviD
Продолжительность                        : 44 м.
Битрейт                                  : 1900 Кбит/сек
Ширина                                   : 720 пикселей
Высота                                   : 400 пикселей
Соотношение сторон                       : 16:9
Частота кадров                           : 25,000 кадров/сек
Цветовое пространство                    : YUV
Субдискретизация насыщенности            : 4:2:0
Битовая глубина                          : 8 бит
Тип развёртки                            : Прогрессивная
Метод сжатия                             : С потерями
Бит/(Пиксели*Кадры)                      : 0.264
Размер потока                            : 601 Мбайт (90%)
Библиотека кодирования                   : XviD 73

Аудио
Идентификатор                            : 1
Формат                                   : AC-3
Формат/Информация                        : Audio Coding 3
Расширение режима                        : CM (complete main)
Параметр Endianness формата              : Big
Идентификатор кодека                     : 2000
Продолжительность                        : 44 м.
Вид битрейта                             : Постоянный
Битрейт                                  : 192 Кбит/сек
Каналы                                   : 2 канала
Расположение каналов                     : Front: L R
Частота                                  : 48,0 КГц
Битовая глубина                          : 16 бит
Метод сжатия                             : С потерями
Размер потока                            : 60,7 Мбайт (9%)
Выравнивание                             : Разделение по промежуткам
Продолжительность промежутка             : 40  мс. (1,00 видеокадр)
Время предзагрузки промежутка            : 500  мс.

Скриншоты:





Время раздачи: до появления первых 3-5 скачавших
   
Торрент: Зарегистрирован [10 янв 2018, 17:31] Скачать торрент Магнет ссылка
Скачать торрент
[ Размер 13.92 КБ / Просмотров 3 ]
Статус:
Проверен
 
.torrent скачан: 1 раз
Размер: 664.39 МБ (696 666 112 байт)
   Стать Автором раздачи
 
 
Шапка детская "Красная шапочка". Детские шапки для бани. Изделие для защиты волос и кожи головы от воздействия высокой температуры в бане и сауне, декорированная цветными нитями
Цитата
  • Похожие торренты
    Ответы
    Просмотры
    Последнее сообщение

Вернуться в Личности

Кто сейчас на конференции

Сейчас эту тему просматривают: нет зарегистрированных пользователей и гости: 1