Мао в цвете. Уроки тирании / Mao in color. A study in tyranny (2015) HDTVRip [H.264/720p-LQ]

 Статистика раздачи 
Размер: 1.14 ГБ   |  Зарегистрирован: 10 янв 2018, 17:31   |   .torrent скачан: 10 раз
Сидеров: 4  [ 0 байт/сек ]     Личеров: 2  [ 0 байт/сек ]  
  
Аватара пользователя
 
Раздал: 0 байт
Скачал: 0 байт
Ратио: Inf.
Сообщения: 142514
Стаж: 7 лет 5 месяцев 6 дней
Откуда: Rossiya

Мао в цвете. Уроки тирании / Mao in color. A study in tyranny (2015) HDTVRip [H.264/720p-LQ]

Телекомпания: Великобритания
Жанр: Документальный, история, биография

Описание:
В этой передаче мы увидим цветной фильм, найденный в архивах, о человеке, который ценой миллионов жизней своего народа создал современный Китай. Для этого фильма используется материал, который никогда и нигде не был обнародован, в нём присутствует уникальная съёмка бывшего коммунистического мира. В материале речь пойдёт о периоде поздних 40-х, когда была гражданская война против Гоминьдана Чана Кайши, о временах правления Мао Цзэдуна и его кончине в 70-х.

Релиз от: alf62

Продолжительность: 00:44:12
Качество видео: HDTVRip
Перевод: Дублированный

Видео: AVC/H.264, 1280x720, ~3500 kbps
Аудио: AC3, 2 ch, 192 kbps
Код: Выделить всё
Мао.в.цвете.2015.AVC.720p.x264.HDTVRip.alf62.mkv
Формат                                   : Matroska
Версия формата                           : Version 4 / Version 2
Размер файла                             : 1,14 Гбайт
Продолжительность                        : 44 м.
Общий поток                              : 3694 Кбит/сек
Дата кодирования                         : UTC 2017-04-29 09:29:17
Программа кодирования                    : mkvmerge v6.0.0 ('Coming Up For Air') built on Jan 20 2013 09:52:00
Библиотека кодирования                   : libebml v1.3.0 + libmatroska v1.4.0

Видео
Идентификатор                            : 1
Формат                                   : AVC
Формат/Информация                        : Advanced Video Codec
Профиль формата                          : [url=http://nnm-club.name/mailto:[email protected]][email protected][/url]
Параметр CABAC формата                   : Да
Параметр ReFrames формата                : 9 кадров
Идентификатор кодека                     : V_MPEG4/ISO/AVC
Продолжительность                        : 44 м.
Битрейт                                  : 3500 Кбит/сек
Ширина                                   : 1280 пикселей
Высота                                   : 720 пикселей
Соотношение сторон                       : 16:9
Режим частоты кадров                     : Постоянный
Частота кадров                           : 25,000 кадров/сек
Цветовое пространство                    : YUV
Субдискретизация насыщенности            : 4:2:0
Битовая глубина                          : 8 бит
Тип развёртки                            : Прогрессивная
Бит/(Пиксели*Кадры)                      : 0.152
Размер потока                            : 1,06 Гбайт (93%)
Библиотека кодирования                   : x264 core 146 r2538 121396c
Настройки программы                      : cabac=1 / ref=9 / deblock=1:-2:-2 / analyse=0x3:0x113 / me=umh / subme=10 / psy=1 / psy_rd=1.00:0.00 / mixed_ref=1 / me_range=32 / chroma_me=1 / trellis=2 / 8x8dct=1 / cqm=0 / deadzone=21,11 / fast_pskip=0 / chroma_qp_offset=-2 / threads=6 / lookahead_threads=1 / sliced_threads=0 / nr=0 / decimate=0 / interlaced=0 / bluray_compat=0 / constrained_intra=0 / bframes=9 / b_pyramid=2 / b_adapt=2 / b_bias=0 / direct=3 / weightb=1 / open_gop=0 / weightp=2 / keyint=250 / keyint_min=25 / scenecut=40 / intra_refresh=0 / rc_lookahead=40 / rc=2pass / mbtree=0 / bitrate=3500 / ratetol=1.0 / qcomp=0.60 / qpmin=10 / qpmax=51 / qpstep=4 / cplxblur=20.0 / qblur=0.5 / vbv_maxrate=14000 / vbv_bufsize=14000 / nal_hrd=none / filler=0 / ip_ratio=1.40 / pb_ratio=1.30 / aq=1:0.80
Default                                  : Да
Forced                                   : Нет

Аудио
Идентификатор                            : 2
Формат                                   : AC-3
Формат/Информация                        : Audio Coding 3
Расширение режима                        : CM (complete main)
Параметр Endianness формата              : Big
Идентификатор кодека                     : A_AC3
Продолжительность                        : 44 м.
Вид битрейта                             : Постоянный
Битрейт                                  : 192 Кбит/сек
Каналы                                   : 2 канала
Расположение каналов                     : Front: L R
Частота                                  : 48,0 КГц
Битовая глубина                          : 16 бит
Метод сжатия                             : С потерями
Размер потока                            : 60,7 Мбайт (5%)
Default                                  : Да
Forced                                   : Нет

Скриншоты:



Время раздачи: до появления первых 3-5 скачавших
   
Торрент: Зарегистрирован [10 янв 2018, 17:31] Скачать торрент Магнет ссылка
Скачать торрент
[ Размер 12.26 КБ / Просмотров 0 ]
Статус:
Проверен
 
.torrent скачан: 10 раз
Размер: 1.14 ГБ (1 224 432 909 байт)
   Стать Автором раздачи
 
 
Цитата
  • Похожие торренты
    Ответы
    Просмотры
    Последнее сообщение

Вернуться в Личности

Кто сейчас на конференции

Сейчас эту тему просматривают: нет зарегистрированных пользователей и гости: 1