The Octopus Project - Memory Mirror (2017) [FLAC|Lossless|tracks + .cue] <Electronic, Indie Rock>

 Статистика раздачи 
Размер: 276 МБ   |  Зарегистрирован: 10 янв 2018, 17:23   |   .torrent скачан: 1 раз
Сидеров: 5  [ 0 байт/сек ]     Личеров: 91  [ 0 байт/сек ]  
  
Аватара пользователя
 
Раздал: 0 байт
Скачал: 0 байт
Ратио: Inf.
Сообщения: 183661
Стаж: 7 лет 8 месяцев 7 дней
Откуда: Rossiya

The Octopus Project - Memory Mirror (2017)

Жанр: Electronic, Indie Rock
Издание: Robot High School ‎– RHS 1902
Продолжительность: 00:40:08

Кодек: FLAC
Битрейт: Lossless
Тип рипа: tracks + .cue

Треклист:
01. Prism Riot (01:10)
02. Brounce (02:14)
03. Wrong Gong (03:10)
04. Mendoza (03:21)
05. Remember Remembering (03:32)
06. Understanding Fruit (04:32)
07. Small Hundred (02:49)
08. Pedro Yang (04:22)
09. Woah, Mossman!! (02:54)
10. Beta Wand (02:33)
11. Cuidate (01:37)
12. Ledgeridge (05:01)
13. Leven (02:53)
Код: Выделить всё
Exact Audio Copy V1.3 from 2. September 2016

EAC extraction logfile from 3. January 2018, 23:15

The Octopus Project / Memory Mirror

Used drive  : ASUS    DRW-24B1ST   j   Adapter: 1  ID: 0

Read mode               : Secure
Utilize accurate stream : Yes
Defeat audio cache      : Yes
Make use of C2 pointers : No

Read offset correction                      : 6
Overread into Lead-In and Lead-Out          : No
Fill up missing offset samples with silence : Yes
Delete leading and trailing silent blocks   : No
Null samples used in CRC calculations       : Yes
Used interface                              : Native Win32 interface for Win NT & 2000
Gap handling                                : Appended to previous track

Used output format              : User Defined Encoder
Selected bitrate                : 896 kBit/s
Quality                         : High
Add ID3 tag                     : No
Command line compressor         : C:\Program Files (x86)\Exact Audio Copy\Flac\flac.exe
Additional command line options : -8 -e -p -V -T "ARTIST=%artist%" -T "TITLE=%title%" -T "ALBUM=%albumtitle%" -T "DATE=%year%" -T "TRACKNUMBER=%tracknr%" -T "DISCNUMBER=%cdnumber%" -T "TOTALDISCS=%totalcds%" -T "TOTALTRACKS=%numtracks%" %source% -o %dest%

TOC of the extracted CD

     Track |   Start  |  Length  | Start sector | End sector
    ---------------------------------------------------------
        1  |  0:00.00 |  1:10.01 |         0    |     5250
        2  |  1:10.01 |  2:14.16 |      5251    |    15316
        3  |  3:24.17 |  3:10.10 |     15317    |    29576
        4  |  6:34.27 |  3:21.23 |     29577    |    44674
        5  |  9:55.50 |  3:32.21 |     44675    |    60595
        6  | 13:27.71 |  4:32.01 |     60596    |    80996
        7  | 17:59.72 |  2:49.05 |     80997    |    93676
        8  | 20:49.02 |  4:22.72 |     93677    |   113398
        9  | 25:11.74 |  2:54.15 |    113399    |   126463
       10  | 28:06.14 |  2:33.69 |    126464    |   138007
       11  | 30:40.08 |  1:37.63 |    138008    |   145345
       12  | 32:17.71 |  5:01.50 |    145346    |   167970
       13  | 37:19.46 |  2:53.45 |    167971    |   180990

Track  1

     Filename C:\EAC\The Octopus Project - Memory Mirror (2017) [FLAC]\01 - Prism Riot.wav

     Pre-gap length  0:00:02.00

     Peak level 99.0 %
     Extraction speed 2.3 X
     Track quality 99.8 %
     Test CRC 9E093BB5
     Copy CRC 9E093BB5
     Accurately ripped (confidence 1)  [180B89A2]  (AR v2)
     Copy OK

Track  2

     Filename C:\EAC\The Octopus Project - Memory Mirror (2017) [FLAC]\02 - Brounce.wav

     Peak level 99.0 %
     Extraction speed 4.6 X
     Track quality 100.0 %
     Test CRC E9A564F3
     Copy CRC E9A564F3
     Accurately ripped (confidence 1)  [6A1A3F69]  (AR v2)
     Copy OK

Track  3

     Filename C:\EAC\The Octopus Project - Memory Mirror (2017) [FLAC]\03 - Wrong Gong.wav

     Peak level 99.0 %
     Extraction speed 5.3 X
     Track quality 100.0 %
     Test CRC 9EB34D69
     Copy CRC 9EB34D69
     Accurately ripped (confidence 1)  [32714018]  (AR v2)
     Copy OK

Track  4

     Filename C:\EAC\The Octopus Project - Memory Mirror (2017) [FLAC]\04 - Mendoza.wav

     Peak level 99.8 %
     Extraction speed 5.7 X
     Track quality 100.0 %
     Test CRC 94877770
     Copy CRC 94877770
     Accurately ripped (confidence 1)  [5C507A6C]  (AR v2)
     Copy OK

Track  5

     Filename C:\EAC\The Octopus Project - Memory Mirror (2017) [FLAC]\05 - Remember Remembering.wav

     Peak level 99.0 %
     Extraction speed 6.2 X
     Track quality 100.0 %
     Test CRC 9F4F0711
     Copy CRC 9F4F0711
     Accurately ripped (confidence 1)  [43549A59]  (AR v2)
     Copy OK

Track  6

     Filename C:\EAC\The Octopus Project - Memory Mirror (2017) [FLAC]\06 - Umderstanding Fruit.wav

     Peak level 99.0 %
     Extraction speed 6.8 X
     Track quality 100.0 %
     Test CRC 97A43C13
     Copy CRC 97A43C13
     Accurately ripped (confidence 1)  [01DD5531]  (AR v2)
     Copy OK

Track  7

     Filename C:\EAC\The Octopus Project - Memory Mirror (2017) [FLAC]\07 - Small Hundred.wav

     Peak level 92.6 %
     Extraction speed 6.7 X
     Track quality 100.0 %
     Test CRC E06B477C
     Copy CRC E06B477C
     Accurately ripped (confidence 1)  [E6A04B6B]  (AR v2)
     Copy OK

Track  8

     Filename C:\EAC\The Octopus Project - Memory Mirror (2017) [FLAC]\08 - Pedro Wang.wav

     Peak level 99.0 %
     Extraction speed 6.2 X
     Track quality 99.9 %
     Test CRC D302A272
     Copy CRC D302A272
     Accurately ripped (confidence 1)  [A8E1CA94]  (AR v2)
     Copy OK

Track  9

     Filename C:\EAC\The Octopus Project - Memory Mirror (2017) [FLAC]\09 - Woah, Mossman!!.wav

     Peak level 99.0 %
     Extraction speed 7.3 X
     Track quality 100.0 %
     Test CRC 96021F3E
     Copy CRC 96021F3E
     Accurately ripped (confidence 1)  [4156AD3A]  (AR v2)
     Copy OK

Track 10

     Filename C:\EAC\The Octopus Project - Memory Mirror (2017) [FLAC]\10 - Beta Wand.wav

     Peak level 99.0 %
     Extraction speed 7.4 X
     Track quality 100.0 %
     Test CRC 726A2B01
     Copy CRC 726A2B01
     Accurately ripped (confidence 1)  [0A28B5B0]  (AR v2)
     Copy OK

Track 11

     Filename C:\EAC\The Octopus Project - Memory Mirror (2017) [FLAC]\11 - Cuidate.wav

     Peak level 79.5 %
     Extraction speed 6.8 X
     Track quality 100.0 %
     Test CRC 977FE44D
     Copy CRC 977FE44D
     Accurately ripped (confidence 1)  [82474967]  (AR v2)
     Copy OK

Track 12

     Filename C:\EAC\The Octopus Project - Memory Mirror (2017) [FLAC]\12 - Ledgeridge.wav

     Peak level 99.0 %
     Extraction speed 8.6 X
     Track quality 100.0 %
     Test CRC 53382BD6
     Copy CRC 53382BD6
     Accurately ripped (confidence 1)  [506BDA69]  (AR v2)
     Copy OK

Track 13

     Filename C:\EAC\The Octopus Project - Memory Mirror (2017) [FLAC]\13 - Leven.wav

     Peak level 95.9 %
     Extraction speed 6.4 X
     Track quality 99.9 %
     Test CRC 681226F9
     Copy CRC 681226F9
     Accurately ripped (confidence 1)  [C9E590E3]  (AR v2)
     Copy OK

All tracks accurately ripped

No errors occurred

End of status report

---- CUETools DB Plugin V2.1.6

[CTDB TOCID: Dj_cZvsHugYjAmwL5QTFNR1weyQ-] found
Submit result: Dj_cZvsHugYjAmwL5QTFNR1weyQ- has been confirmed
Track | CTDB Status
  1   | (1/1) Accurately ripped
  2   | (1/1) Accurately ripped
  3   | (1/1) Accurately ripped
  4   | (1/1) Accurately ripped
  5   | (1/1) Accurately ripped
  6   | (1/1) Accurately ripped
  7   | (1/1) Accurately ripped
  8   | (1/1) Accurately ripped
  9   | (1/1) Accurately ripped
 10   | (1/1) Accurately ripped
 11   | (1/1) Accurately ripped
 12   | (1/1) Accurately ripped
 13   | (1/1) Accurately ripped

==== Log checksum 8BFBE90CAC8D5516446ADB7ECECCD08E3C11D268AD454FC1C7DD68F393011CEA ====
Код: Выделить всё
REM DATE 2017
REM DISCID AD096D0D
REM COMMENT "ExactAudioCopy v1.3"
PERFORMER "The Octopus Project"
TITLE "Memory Mirror"
REM COMPOSER ""
FILE "01 - Prism Riot.wav" WAVE
  TRACK 01 AUDIO
    TITLE "Prism Riot"
    PERFORMER "The Octopus Project"
    REM COMPOSER ""
    INDEX 01 00:00:00
FILE "02 - Brounce.wav" WAVE
  TRACK 02 AUDIO
    TITLE "Brounce"
    PERFORMER "The Octopus Project"
    REM COMPOSER ""
    INDEX 01 00:00:00
FILE "03 - Wrong Gong.wav" WAVE
  TRACK 03 AUDIO
    TITLE "Wrong Gong"
    PERFORMER "The Octopus Project"
    REM COMPOSER ""
    INDEX 01 00:00:00
FILE "04 - Mendoza.wav" WAVE
  TRACK 04 AUDIO
    TITLE "Mendoza"
    PERFORMER "The Octopus Project"
    REM COMPOSER ""
    INDEX 01 00:00:00
FILE "05 - Remember Remembering.wav" WAVE
  TRACK 05 AUDIO
    TITLE "Remember Remembering"
    PERFORMER "The Octopus Project"
    REM COMPOSER ""
    INDEX 01 00:00:00
FILE "06 - Umderstanding Fruit.wav" WAVE
  TRACK 06 AUDIO
    TITLE "Umderstanding Fruit"
    PERFORMER "The Octopus Project"
    REM COMPOSER ""
    INDEX 01 00:00:00
FILE "07 - Small Hundred.wav" WAVE
  TRACK 07 AUDIO
    TITLE "Small Hundred"
    PERFORMER "The Octopus Project"
    REM COMPOSER ""
    INDEX 01 00:00:00
FILE "08 - Pedro Wang.wav" WAVE
  TRACK 08 AUDIO
    TITLE "Pedro Wang"
    PERFORMER "The Octopus Project"
    REM COMPOSER ""
    INDEX 01 00:00:00
FILE "09 - Woah, Mossman!!.wav" WAVE
  TRACK 09 AUDIO
    TITLE "Woah, Mossman!!"
    PERFORMER "The Octopus Project"
    REM COMPOSER ""
    INDEX 01 00:00:00
FILE "10 - Beta Wand.wav" WAVE
  TRACK 10 AUDIO
    TITLE "Beta Wand"
    PERFORMER "The Octopus Project"
    REM COMPOSER ""
    INDEX 01 00:00:00
FILE "11 - Cuidate.wav" WAVE
  TRACK 11 AUDIO
    TITLE "Cuidate"
    PERFORMER "The Octopus Project"
    REM COMPOSER ""
    INDEX 01 00:00:00
FILE "12 - Ledgeridge.wav" WAVE
  TRACK 12 AUDIO
    TITLE "Ledgeridge"
    PERFORMER "The Octopus Project"
    REM COMPOSER ""
    INDEX 01 00:00:00
FILE "13 - Leven.wav" WAVE
  TRACK 13 AUDIO
    TITLE "Leven"
    PERFORMER "The Octopus Project"
    REM COMPOSER ""
    INDEX 01 00:00:00
Код: Выделить всё
-----------------------

DON'T MODIFY THIS FILE

-----------------------

PERFORMER: auCDtect Task Manager, ver. 1.6.0 RC1 build 1.6.0.1
Copyright (c) 2008-2010 y-soft. All rights reserved
[url=http://y-soft.org]http://y-soft.org[/url]

ANALYZER: auCDtect: CD records authenticity detector, version 0.8.2
Copyright (c) 2004 Oleg Berngardt. All rights reserved.
Copyright (c) 2004 Alexander Djourik. All rights reserved.

FILE: 13 - Leven.flac
  Size: 16007632 Hash: 804B1863A3F30DF7F95D4C8A7446914C Accuracy: -m0
  Conclusion: CDDA 100%
  Signature: 2FC2BAAE101B8FC483262DA9EB64ADA4E88D7E39
FILE: 12 - Ledgeridge.flac
  Size: 37216411 Hash: 953E22BCED38D4D9C763A3C78ED52F34 Accuracy: -m0
  Conclusion: CDDA 100%
  Signature: A42FD583E7DF32F3E17A123412CE49DD836675BC
FILE: 11 - Cuidate.flac
  Size: 12797622 Hash: 62626EB71B414AFF8B63AADB205EED74 Accuracy: -m0
  Conclusion: CDDA 100%
  Signature: 6FB407C38DE985FC5DE702D140AE83E7458E3220
FILE: 10 - Beta Wand.flac
  Size: 18566995 Hash: 6D70D54E8C3C275FE3E763938A4A3F09 Accuracy: -m0
  Conclusion: CDDA 99%
  Signature: AD5CBAC61D71C926F7DBF150B12522D175E4EC86
FILE: 09 - Woah, Mossman!!.flac
  Size: 22655931 Hash: F9BDEEE0C47A05EEB191C8D680ED9A33 Accuracy: -m0
  Conclusion: CDDA 100%
  Signature: 28CA4ACB1ED3B74660A2C16237E2DF865794A4E5
FILE: 08 - Pedro Wang.flac
  Size: 32560239 Hash: A2E309120BA8863369C8E5F5C1A11DEE Accuracy: -m0
  Conclusion: MPEG 95%
  Signature: 9A132D8FD5BD4201895BB0456E568AAAA153523B
FILE: 07 - Small Hundred.flac
  Size: 17833966 Hash: 2EFBE84C8CE898DE60C147D11B1CB35B Accuracy: -m0
  Conclusion: CDDA 99%
  Signature: 9013C477A099516545DE5B215C75DE4711404F39
FILE: 06 - Umderstanding Fruit.flac
  Size: 31647426 Hash: 1F0E81C90328787F62E3F12B1310A9EC Accuracy: -m0
  Conclusion: CDDA 100%
  Signature: 66CAC2C3C7009ADED55E3B0C165D67A04EDD342A
FILE: 05 - Remember Remembering.flac
  Size: 26311021 Hash: 7F88ACAF4075FCCD111B1C173CBC999D Accuracy: -m0
  Conclusion: CDDA 100%
  Signature: 5E9DFA79EDC578CAAC0266C32ED6D6EA70D22D21
FILE: 04 - Mendoza.flac
  Size: 24026850 Hash: 1E804B86D2543C8B0231857BBF145256 Accuracy: -m0
  Conclusion: CDDA 100%
  Signature: 1621BAC4F8ED8179B37ABFEF79B7CD58FDD33E32
FILE: 03 - Wrong Gong.flac
  Size: 25392154 Hash: D1451E5AEE5908C45E18AE04E7690ED8 Accuracy: -m0
  Conclusion: CDDA 99%
  Signature: 39B46901605F3377C367891F55222AAF9432C9A8
FILE: 02 - Brounce.flac
  Size: 16191333 Hash: A6F0353257EFE1E801184EEC07336BB7 Accuracy: -m0
  Conclusion: CDDA 100%
  Signature: 28A53AB55E890ADA2BA75C44841D2185FACE0FA8
FILE: 01 - Prism Riot.flac
  Size: 8081557 Hash: 85415A95C227EB9A7CBE31069F4C9A8D Accuracy: -m0
  Conclusion: CDDA 100%
  Signature: 7FFD03E5EF18914AF9BE626D847E2CDD14233714

Время раздачи: до появления первых 3-5 скачавших
#7
Код: Выделить всё
[b]Поглощение/вытеснение [/b]
[b]Только с согласия релизера[/b]
[b][u][i]Bigbeer[/b][/i][/u]
Не забывайте говорить Спасибо. Не уходите с раздачи!   
Торрент: Зарегистрирован [10 янв 2018, 17:23] Для скачивания .torrent
необходима регистрация
Или скачать с помощью
MediaGet
Статус:
Проверен
 
.torrent скачан: 1 раз
Размер: 276 МБ (289 403 200 байт)
   Стать Автором раздачи
   
Цитата

Вернуться в Music from other genres

Кто сейчас на конференции

Сейчас эту тему просматривают: нет зарегистрированных пользователей и гости: 1