Joomla - Видео урок. Экспресс курс (2012) WMV

 Статистика раздачи 
Размер: 209.5 МБ   |  Зарегистрирован: 29 фев 2012, 11:30   |   .torrent скачан: 63 раз
Сидеров: 61  [ 0 байт/сек ]     Личеров: 4  [ 0 байт/сек ]  
  
Аватара пользователя
Администратор
Администратор
 
Раздал: 24.48 ТБ
Скачал: 388.83 ГБ
Ратио: 145.347
Сообщения: 6101
Стаж: 7 лет 10 месяцев 12 дней
Откуда: Lithuania

Joomla - Видео урок. Экспресс курс (2012) WMV


Оригинальное название: Joomla - Видео урок. Экспресс курс (2012) WMV
Дата выхода: 2012
Страна: Россия
Жанр: экспресс курс
Перевод: не требуется
Продолжительность: 163 мин
Дополнительно: Видео урок по раскрутке сайта и созданию материалов в Joomla, который содержит семь видео уроков, плюс бонус
1.Вводный видео урок.
2.Установка Joomla.
3.Разделы, категории, материалы.
4.Создание меню.
5.Компоненты, модули, плагины.
6.Шаблоны, настройки, инструменты.
7.Закачка сайта Joomla на хостинг.
8.Бонусный видео урок по раскрутке сайта и созданию эффективных материалов в Joomla.
Качество: TechSmith
Формат аудио: WMA
Формат видео: VC-1
Видео: VC-1,900х700, 936Kbps
Аудио: 22050Hz, 353Kbps, кодек Microsoft PCM Format
Код: Выделить всё
General
Полное имя                       : D:\ЗАКАЧКИ\Express\prodaga.com_joomlaexpress.ru_bonus\joomlaexpress.ru_bonus.wmv
Формат                           : Windows Media
Размер файла                     : 66.5 MiB
Продолжительность                : 34mn 18s
Режим общего битрейта            : Variable
Общий поток                      : 271 Kbps
Максимальный общий битрейт       : 1 494 Kbps
Название фильма                  : bonus
Дата кодирования                 : UTC 2008-06-27 02:36:28.833

Video
Идентификатор                    : 2
Формат                           : VC-1
Профиль формата                  : MP@ML
Идентификатор кодека             : WMV3
Идентификатор кодека/Информация  : Windows Media Video 9
Идентификатор кодека/Подсказка   : WMV3
Описание кодека                  : Windows Media Video 9
Продолжительность                : 34mn 18s
Вид битрейта                     : Variable
Битрейт                          : 210 Kbps
Ширина                           : 640 pixels
Высота                           : 480 pixels
Соотношение сторон               : 4:3
Частота кадров                   : 15.000 fps
Битовая глубина                  : 8 bits
Тип развёртки                    : Progressive
Метод сжатия                     : Lossy
Бит/(Пиксели*Кадры)              : 0.046
Размер потока                    : 51.6 MiB (78%)
Язык                             : English (US)

Audio
Идентификатор                    : 1
Формат                           : WMA
Версия формата                   : Version 2
Идентификатор кодека             : 161
Идентификатор кодека/Информация  : Windows Media Audio
Описание кодека                  : Windows Media Audio 9.2 -  48 kbps, 44 kHz, mono (A/V) 1-pass CBR
Продолжительность                : 34mn 18s
Вид битрейта                     : Constant
Битрейт                          : 48.0 Kbps
Каналы                           : 1 channel
Частота                          : 44.1 KHz
Битовая глубина                  : 16 bits
Размер потока                    : 11.8 MiB (18%)
Язык                             : English (US)



Не забывайте говорить Спасибо. Не уходите с раздачи!   
Торрент: Зарегистрирован [29 фев 2012, 11:30] Для скачивания .torrent
необходима регистрация
Или скачать с помощью
MediaGet
Статус:
Проверен
 
.torrent скачан: 63 раз
Размер: 209.5 МБ (219 672 268 байт)
   Стать Автором раздачи
   
Цитата
  • Похожие торренты
    Ответы
    Просмотры
    Последнее сообщение

Вернуться в Разное (Видеоуроки)

Кто сейчас на конференции

Сейчас эту тему просматривают: нет зарегистрированных пользователей и гости: 1