«Кому на Руси жить?!» Концерт Михаила Задорнова [2010, Концерт, юмор, HDTV 1080i]

 Статистика раздачи 
Размер: 4.53 ГБ   |  Зарегистрирован: 10 янв 2018, 10:19   |   .torrent скачан: 2 раз
Сидеров: 8  [ 0 байт/сек ]     Личеров: 3  [ 0 байт/сек ]  
  
Аватара пользователя
Я на сайте
 
Раздал: 3.59 ТБ
Скачал: 100.65 ГБ
Ратио: 36.563
Сообщения: 200445
Стаж: 1 год 8 месяцев 21 день

«Кому на Руси жить?!» Концерт Михаила Задорнова
Дата/Год выпуска: 2010
Страна: Россия
Жанр: Концерт, юмор
Продолжительность: 01:24:15
Перевод: Не требуется
Русские субтитры: нет
Оригинальная аудиодорожка: русский
Телеканал: Первый HD
Описание: Извечный вопрос - «Кому на Руси жить хорошо?!» Ответ на этот вопрос Михаил Задорнов решил найти на Дальнем Востоке и совершил своеобразный вояж, проехав по Курилам, Сахалину, Камчатке. Многие наблюдения легли в основу концерта. Этот концерт Михаил Задорнов посвятил 100-летию со дня рождения своего отца. Невозмутимый, циничный, зорко следящий за реальностью – не надейтесь, от него не скроется ни один ляп, не важно, кем допущенный. Утром в газете, вечером в куплете, как раньше говорили. И публика доверяет Задорнову. Он человек проверенный, не обманет. Зрителей ждут, как всегда, искрометные шутки и хорошее настроение.
Доп. информация:
Автор релиза -
Источник аудио и видео - HDTV 1080i TS - моя запись с канала Первый HD от 02.07.2017
В дорожке AC3, 48000 Гц, 6ch, 384 kbps по факту лишь 2 канала со звуком, а оставшиеся 4 канала пустые
Сэмпл: https://yadi.sk/i/yy9BjfZD3Pbw5X
качество: HDTV 1080i
формат: TS
Видео: MPEG-4 AVC, 1920x1080 (16:9), 25.000 fps, 6705 kbps, 0.129 bit/pixel
Аудио 1: Русский MP2, 48000 Гц, 2ch, 224 kbps
Аудио 2: Русский AC3, 48000 Гц, 2ch, 384 kbps
Код: Выделить всё
Общее
Идентификатор                            : 1 (0x1)
Полное имя                               : D:\Кому.на.Руси.жить.Концерт.Михаила.Задорнова.2010.HDTV.1080i-ylnian.ts
Формат                                   : MPEG-TS
Размер файла                             : 4,53 Гбайт
Продолжительность                        : 1 ч. 24 м.
Режим общего битрейта                    : Переменный
Общий поток                              : 7700 Кбит/сек
Видео
Идентификатор                            : 1902 (0x76E)
Идентификатор меню                       : 92 (0x5C)
Формат                                   : AVC
Формат/Информация                        : Advanced Video Codec
Профиль формата                          : High@L4
Настройки формата                        : CABAC / 3 Ref Frames
Параметр CABAC формата                   : Да
Параметр RefFrames формата               : 3 кадра
Параметр GOP формата                     : M=4, N=32
Идентификатор кодека                     : 27
Продолжительность                        : 1 ч. 24 м.
Битрейт                                  : 6705 Кбит/сек
Ширина                                   : 1920 пикселей
Высота                                   : 1080 пикселей
Соотношение сторон                       : 16:9
Частота кадров                           : 25,000 кадров/сек
Стандарт вещания                         : Component
Цветовое пространство                    : YUV
Субдискретизация насыщенности            : 4:2:0
Битовая глубина                          : 8 бит
Тип развёртки                            : Чересстрочная
Метод сохранения типа развёртки          : Раздельные поля
Порядок развёртки                        : Верхнее поле первое
Бит/(Пиксели*Кадры)                      : 0.129
Размер потока                            : 3,95 Гбайт (87%)
Цветовой диапазон                        : Limited
Основные цвета                           : BT.709
Характеристики трансфера                 : BT.709
Коэффициенты матрицы                     : BT.709
Аудио #1
Идентификатор                            : 2902 (0xB56)
Идентификатор меню                       : 92 (0x5C)
Формат                                   : MPEG Audio
Версия формата                           : Version 1
Профиль формата                          : Layer 2
Идентификатор кодека                     : 3
Продолжительность                        : 1 ч. 24 м.
Вид битрейта                             : Постоянный
Битрейт                                  : 224 Кбит/сек
Каналы                                   : 2 канала
Частота                                  : 48,0 КГц
Частота кадров                           : 41,667 кадра/сек (1152 SPF)
Метод сжатия                             : С потерями
Размер потока                            : 135 Мбайт (3%)
Язык                                     : Russian
Аудио #2
Идентификатор                            : 3902 (0xF3E)
Идентификатор меню                       : 92 (0x5C)
Формат                                   : AC-3
Формат/Информация                        : Audio Coding 3
Идентификатор кодека                     : 6
Продолжительность                        : 1 ч. 24 м.
Вид битрейта                             : Постоянный
Битрейт                                  : 384 Кбит/сек
Каналы                                   : 6 каналов
Расположение каналов                     : Front: L C R, Side: L R, LFE
Частота                                  : 48,0 КГц
Частота кадров                           : 31,250 кадров/сек (1536 SPF)
Битовая глубина                          : 16 бит
Метод сжатия                             : С потерями
Размер потока                            : 231 Мбайт (5%)
Язык                                     : Russian
ServiceKind/String                       : Complete Main
Не забывайте говорить Спасибо. Не уходите с раздачи!   
Торрент: Зарегистрирован [10 янв 2018, 10:19] Для скачивания .torrent
необходима регистрация
Или скачать с помощью
MediaGet
Статус:
Проверен
 
.torrent скачан: 2 раз
Хэш: 1c3093fee35bbffd9f9ef5ed294f5e9b3fb212d1
Размер: 4.53 ГБ (4 863 410 164 байт)
   Стать Автором раздачи
   
Цитата

Вернуться в Сатирики и юмористы

Кто сейчас на конференции

Сейчас эту тему просматривают: нет зарегистрированных пользователей и гости: 1