Все хиты Юмора. Концерт Юмор FM 2016.11.04 [2016, Юмористический концерт, HDTV 1080i]

 Статистика раздачи 
Размер: 8.22 ГБ   |  Зарегистрирован: 10 янв 2018, 09:01   |   .torrent скачан: 1 раз
Сидеров: 4  [ 0 байт/сек ]     Личеров: 2  [ 0 байт/сек ]  
  
Аватара пользователя
 
Раздал: 3.55 ТБ
Скачал: 100.03 ГБ
Ратио: 36.350
Сообщения: 200010
Стаж: 1 год 8 месяцев 19 дней

Все хиты Юмора. Концерт Юмор FM 2016.11.04
Дата/Год выпуска: 2016
Страна: Россия
Жанр: Юмористический концерт
Продолжительность: 01:19:00
Перевод: Не требуется
Оригинальная аудиодорожка: русский
Телеканал: НТВ-HD
Описание: Концерт "Все хиты Юмора" посвящен десятилетнему юбилею радиостанции "Юмор FM". Настоящие легенды юмора - Семен Альтов, Михаил Задорнов, Дмитрий Колчин и Алексей Кортнев - трио из "Салтыков-Щедрин Шоу" на НТВ, "Уральские пельмени", Юрий Гальцев, собрались вместе, чтобы поздравить "Юмор FM" с юбилеем. За музыкальную составляющую вечера отвечают артисты, хиты которых звучат в эфире "Юмор FM" - Нюша, Стас Костюшкин, Жасмин, группа Фабрика, Елена Темникова, Винтаж, Бурито и многие другие!
качество: HDTV 1080i
формат: TS
Видео: H264; 1920x1080 (16:9); 25.000 fps; ~13.8 Mb/s
Аудио: MPEG Audio 48000Hz 2 канала stereo 192 Кбит/сек
Код: Выделить всё
General
ID                             : 1 (0x1)
Complete name                  : E:\Смеяться разрешается  2014.05.01 - 2014.05.18\Все хиты Юмора. Концерт Юмор FM 2016.11.04.ts
Format                         : MPEG-TS
File size                      : 8.22 GiB
Duration                       : 1 h 19 min
Overall bit rate mode          : Variable
Overall bit rate               : 14.7 Mb/s
Video
ID                             : 2104 (0x838)
Menu ID                        : 104 (0x68)
Format                         : AVC
Format/Info                    : Advanced Video Codec
Format profile                 : High@L4
Format settings, CABAC         : Yes
Format settings, ReFrames      : 4 frames
Codec ID                       : 27
Duration                       : 1 h 19 min
Bit rate                       : 13.8 Mb/s
Width                          : 1 920 pixels
Height                         : 1 080 pixels
Display aspect ratio           : 16:9
Frame rate                     : 25.000 FPS
Standard                       : Component
Color space                    : YUV
Chroma subsampling             : 4:2:0
Bit depth                      : 8 bits
Scan type                      : Interlaced
Scan type, store method        : Separated fields
Scan order                     : Top Field First
Bits/(Pixel*Frame)             : 0.266
Stream size                    : 7.70 GiB (94%)
Color range                    : Limited
Color primaries                : BT.709
Transfer characteristics       : BT.709
Matrix coefficients            : BT.709
Audio
ID                             : 3104 (0xC20)
Menu ID                        : 104 (0x68)
Format                         : MPEG Audio
Format version                 : Version 1
Format profile                 : Layer 2
Codec ID                       : 3
Duration                       : 1 h 19 min
Bit rate mode                  : Constant
Bit rate                       : 192 kb/s
Channel(s)                     : 2 channels
Sampling rate                  : 48.0 kHz
Compression mode               : Lossy
Stream size                    : 110 MiB (1%)
Language                       : Russian


Не забывайте говорить Спасибо. Не уходите с раздачи!   
Торрент: Зарегистрирован [10 янв 2018, 09:01] Для скачивания .torrent
необходима регистрация
Или скачать с помощью
MediaGet
Статус:
Проверен
 
.torrent скачан: 1 раз
Хэш: 0e728d7a58d6f5e78c381ad3ad1c1d65117d9343
Размер: 8.22 ГБ (8 825 015 348 байт)
   Стать Автором раздачи
   
Цитата

Вернуться в Сатирики и юмористы

Кто сейчас на конференции

Сейчас эту тему просматривают: нет зарегистрированных пользователей и гости: 1