Бизнесмен 2 / Pandaga Chesko (Гопичанд Малинели / Gopichand Malineni) [2015, Индия, Комедия, драма, мелодрама, HDTVRip] MVO + Sub Rus (песни)

 Статистика раздачи 
Размер: 2.14 ГБ   |  Зарегистрирован: 14 мар 2018, 19:44   |   .torrent скачан: 1 раз
Сидеров: 8  [ 0 байт/сек ]     Личеров: 2  [ 0 байт/сек ]  
  
Аватара пользователя
 
Раздал: 1.84 ТБ
Скачал: 4.79 ГБ
Ратио: 393.788
Сообщения: 135172
Стаж: 1 год 2 месяца 4 дня

Бизнесмен 2 / Pandaga Chesko


Страна: Индия
Жанр: Комедия, драма, мелодрама
Год выпуска: 2015
Продолжительность: 02:12:09

Перевод: Любительский (многоголосый закадровый)
Субтитры: Нет

Режиссер: Гопичанд Малинели / Gopichand Malineni
В ролях: Рам, Ракул Прит Сингх, Сонал Чаухан, Сай Кумар, Брахманандам, Адития Менон, Рао Рамеш, Павитра Локеш, Теджасви Мадивада, Сампатх Радж, Веннела Кишор

Описание: Картик Потхинени – успешный бизнесмен, для которого нет ничего дороже, чем деньги и время. Ради жажды наживы и расширения бизнеса, он готов жениться на Свити – не менее успешном директоре огромной корпорации. Однако, родные парня не разделяют его любви к деньгам и поэтому, отправляют юного бизнесмена в деревню, где живут два непримиримых врага, круто повлиявших на судьбу всей его семьи…(c) HASEENA


Качество видео: HDTVRip
Формат видео: AVI
Видео: 720x320 (2.25:1), 25 fps, XviD build 73 ~2122 kbps avg, 0.37 bit/pixel
Аудио: 48 kHz, AC3 Dolby Digital, 2/0 (L,R) ch, ~192 kbps

Релиз от:
Озвучивали: Маргарита Корш, Маргарита Сахно, Станислав Черсков, Кирилл Патрино (спасибо!)
Звукорежиссёр: Михаил Шорыгин (спасибо!)
Перевод на русский язык: Honey&Haseena (спасибо!)
Фильм переведён и озвучен по заказу Шодовара Исматова.
Сэмпл / Sample





General
Complete name : Z:\[DVDRip]\[VO]\Businessman.2.2015.XviD.HDTVRip.HoneyHaseena.avi
Format : AVI
Format/Info : Audio Video Interleave
Format profile : OpenDML
File size : 2.14 GiB
Duration : 2h 12mn
Overall bit rate : 2 321 Kbps
Writing application : VirtualDubMod 1.5.10.2 (build 2540/release)
Writing library : VirtualDubMod build 2540/release
Video
ID : 0
Format : MPEG-4 Visual
Format profile : Advanced [email protected]
Format settings, BVOP : 1
Format settings, QPel : No
Format settings, GMC : No warppoints
Format settings, Matrix : Default (MPEG)
Codec ID : XVID
Codec ID/Hint : XviD
Duration : 2h 12mn
Bit rate : 2 117 Kbps
Width : 720 pixels
Height : 320 pixels
Display aspect ratio : 2.25:1
Frame rate : 25.000 fps
Color space : YUV
Chroma subsampling : 4:2:0
Bit depth : 8 bits
Scan type : Progressive
Compression mode : Lossy
Bits/(Pixel*Frame) : 0.368
Stream size : 1.95 GiB (91%)
Writing library : XviD 73
Audio
ID : 1
Format : AC-3
Format/Info : Audio Coding 3
Mode extension : CM (complete main)
Format settings, Endianness : Big
Codec ID : 2000
Duration : 2h 12mn
Bit rate mode : Constant
Bit rate : 192 Kbps
Channel(s) : 2 channels
Channel positions : Front: L R
Sampling rate : 48.0 KHz
Compression mode : Lossy
Stream size : 181 MiB (8%)
Alignment : Split accross interleaves
Interleave, duration : 40 ms (1.00 video frame)
Interleave, preload duratio : 500 ms
   
Торрент: Зарегистрирован [14 мар 2018, 19:44] Индийское кино Скачать торрент Магнет ссылка
Скачать торрент
[ Размер 11.19 КБ / Просмотров 13 ]
Статус:
Проверен
 
.torrent скачан: 1 раз
Размер: 2.14 ГБ (2 300 788 736 байт)
   Стать Автором раздачи
 
 
Цитата
  • Похожие торренты
    Ответы
    Просмотры
    Последнее сообщение

Вернуться в Индийское кино

Кто сейчас на конференции

Сейчас эту тему просматривают: нет зарегистрированных пользователей и гости: 1