Вор, вор, супер вор! / Chor chor super chor (Раджеш К / Rajesh. K.) [2013, Индия, Комедия, триллер, драма, HDTVRip] DVO

 Статистика раздачи 
Размер: 1.38 ГБ   |  Зарегистрирован: 14 мар 2018, 19:44   |   .torrent скачан: 2 раз
Сидеров: 0  [ 0 байт/сек ]     Личеров: 2  [ 0 байт/сек ]  
  
Аватара пользователя
 
Раздал: 3.34 ТБ
Скачал: 63.98 ГБ
Ратио: 53.440
Сообщения: 196950
Стаж: 1 год 7 месяцев 25 дней

Вор, вор, супер вор! / Chor chor super chor
Страна: Индия
Студия: Katson Motion Pictures Pvt Ltd
Жанр: Комедия, триллер, драма
Год выпуска: 2013
Продолжительность: 01:34:50
Перевод: Профессиональный (двухголосый закадровый) студия Ульпаней Эльром
Субтитры: Нет
Оригинальная аудиодорожка: Нет
Режиссер: Раджеш К / Rajesh. K.
В ролях: Дипак Добриял, Прия Бхатиджа, Аншул Катария, Пару Ума, Алок Чатурведи, Брама Мишра, Нитин Гоэл, Джагат Рават, Чандрахас Тивари, Анураг Арора, Шрикант Верма, Автар Сахни, Тина Бхатиа
Описание: В переполненном районе Старого Дели Шукла-джи работает в небольшой фотостудии, которая служит ему прикрытием от мелких преступлений. На протяжении многих лет он охаживает кучку молодежи и учит ее искусству карманных краж. Сатбир, член банды, хочет отказаться от порочной жизни и начать новую жизнь. Он встречает Нину и влюбляется в нее. Между тем, другой мошенник Амол и его банда головорезов находятся в поиске умных мужчин, чтобы приобщить их в свою банду. Он положил глаз на Ронни, одного из подопечных Шуклы, но Шукла кажется слишком большим препятствием на пути Амола. Сатбир бегает за Ниной в надежде завоевать ее сердце. Эта сатирическая комедия с большим количеством остроумных ситуаций преобразуется в сложную головоломку.
Дополнительная информация:
Автор релиза -
Источник аудио и видео для рипа - моя запись с т/к Bollywood HD
Рекламы нет!


Сэмпл: https://yadi.sk/i/-h2UlP3f3THFsP
Качество видео: HDTVRip
Формат видео: AVI
Видео: XviD, 720x304 (2,35:1), 25.000 fps, 1877 kbps, 0.343 bit/pixel
Аудио: Русский AC3, 48000 Гц, 2ch, 192 kbps
Код: Выделить всё
Общее
Полное имя                               : D:\Chor.chor.super.chor.2013.HDTVRip-ylnian.avi
Формат                                   : AVI
Формат/Информация                        : Audio Video Interleave
Размер файла                             : 1,38 Гбайт
Продолжительность                        : 1 ч. 34 м.
Общий поток                              : 2079 Кбит/сек
Программа кодирования                    : VirtualDubMod 1.5.10.2 (build 2540/release)
Библиотека кодирования                   : VirtualDubMod build 2540/release
Видео
Идентификатор                            : 0
Формат                                   : MPEG-4 Visual
Профиль формата                          : Advanced Simple@L5
Настройки формата                        : BVOP1
Параметр BVOP формата                    : 1
Параметр QPel формата                    : Нет
Параметр GMC формата                     : Без точки перехода
Параметр матрицы формата                 : Default (MPEG)
Идентификатор кодека                     : XVID
Идентификатор кодека/Подсказка           : XviD
Продолжительность                        : 1 ч. 34 м.
Битрейт                                  : 1877 Кбит/сек
Ширина                                   : 720 пикселей
Высота                                   : 304 пикселя
Соотношение сторон                       : 2,35:1
Частота кадров                           : 25,000 кадров/сек
Цветовое пространство                    : YUV
Субдискретизация насыщенности            : 4:2:0
Битовая глубина                          : 8 бит
Тип развёртки                            : Прогрессивная
Метод сжатия                             : С потерями
Бит/(Пиксели*Кадры)                      : 0.343
Размер потока                            : 1,24 Гбайт (90%)
Библиотека кодирования                   : XviD 67
Аудио
Идентификатор                            : 1
Формат                                   : AC-3
Формат/Информация                        : Audio Coding 3
Идентификатор кодека                     : 2000
Продолжительность                        : 1 ч. 34 м.
Вид битрейта                             : Постоянный
Битрейт                                  : 192 Кбит/сек
Каналы                                   : 2 канала
Расположение каналов                     : Front: L R
Частота                                  : 48,0 КГц
Частота кадров                           : 31,250 кадров/сек (1536 SPF)
Битовая глубина                          : 16 бит
Метод сжатия                             : С потерями
Размер потока                            : 130 Мбайт (9%)
Выравнивание                             : Разделение по промежуткам
Продолжительность промежутка             : 40  мс. (1,00 видеокадр)
Время предзагрузки промежутка            : 500  мс.
ServiceKind/String                       : Complete Main
Не забывайте говорить Спасибо. Не уходите с раздачи!   
Торрент: Зарегистрирован [14 мар 2018, 19:44] Для скачивания .torrent
необходима регистрация
Или скачать с помощью
MediaGet
Статус:
Проверен
 
.torrent скачан: 2 раз
Хэш: 6362e4d660c8d16556d265823c51b9e6f1584a65
Размер: 1.38 ГБ (1 478 574 080 байт)
   Стать Автором раздачи
   
Цитата
  • Похожие торренты
    Ответы
    Просмотры
    Последнее сообщение

Вернуться в Индийское кино

Кто сейчас на конференции

Сейчас эту тему просматривают: нет зарегистрированных пользователей и гости: 1