Мама / Mom (Рави Удявар / Ravi Udyawar) [2017, Индия, Драма, триллер, HDRip] MVO (Zee TV)

 Статистика раздачи 
Размер: 2.11 ГБ   |  Зарегистрирован: 14 мар 2018, 19:44   |   .torrent скачан: 1 раз
Сидеров: 9  [ 0 байт/сек ]     Личеров: 2  [ 0 байт/сек ]  
  
Аватара пользователя
 
Раздал: 2.28 ТБ
Скачал: 6.02 ГБ
Ратио: 387.027
Сообщения: 171699
Стаж: 1 год 3 месяца 30 дней

Мама / Mom

Страна: Индия
Жанр: Драма, триллер
Год выпуска: 2017
Продолжительность: 02:26:24
Перевод: Профессиональный (многоголосый закадровый) - Zee TV
Субтитры: Нет
Режиссер: Рави Удявар / Ravi Udyawar
В ролях: Шридеви, Акшай Кханна, Аднан Сиддикуи, Саял Али, Синг Амбхимани Шехар, Питобаш Трипати, Навазуддин Сиддикуи, Юврай Сингх Баджва
Описание: Учитель биологии Дэваки популярна среди своих учеников. Однако дома, несмотря на ее настойчивый и теплый подход, ее падчерица Арья не принимает мачеху. Арию приглашают на вечеринку в день святого Валентина. На вечеринке Арья отказывается станцевать с Мохитом (трудный одноклассник). Разгневанный этим публичным оскорблением Мохит,Чарльз, Джагана, и сторож Бабу похищают Арию, когда она покидает вечеринку и надругавшись над ней выкидывают ее в канализацию. Дэваки разбита. Не найдя справедливости в правосудии, Дэваки решает действовать сама и мстит врагам своей дочери. Фильм о том, как далеко готова зайти отчаявшаяся мать ради защиты детей, как своих, так и приёмных.
IMDb | Кинопоиск

Качество видео: HDRip
Формат видео: AVI
Видео: 720x304 (2.37:1), 24.000 fps, XviD build 50 ~1868 kbps avg, 0.35 bit/pixel
Аудио: 48 kHz, AC3 Dolby Digital, 2/0 (L,R) ch, ~192 kbps
Сэмпл
Релиз:
Рип, синхрон. звука: soso4eg



General
Complete name : F:\1_1\Mama.2017.P.HDRip.XviD.BwTorrents.avi
Format : AVI
Format/Info : Audio Video Interleave
Format profile : OpenDML
File size : 2.11 GiB
Duration : 2h 26mn
Overall bit rate : 2 068 Kbps
Writing application : VirtualDubMod 1.5.10.2 (build 2540/release)
Video
ID : 0
Format : MPEG-4 Visual
Format profile : Advanced [email protected]
Format settings, BVOP : 2
Format settings, QPel : No
Format settings, GMC : No warppoints
Format settings, Matrix : Default (H.263)
Codec ID : XVID
Codec ID/Hint : XviD
Duration : 2h 26mn
Bit rate : 1 863 Kbps
Width : 720 pixels
Height : 304 pixels
Display aspect ratio : 2.35:1
Frame rate : 24.000 fps
Color space : YUV
Chroma subsampling : 4:2:0
Bit depth : 8 bits
Scan type : Progressive
Compression mode : Lossy
Bits/(Pixel*Frame) : 0.355
Stream size : 1.91 GiB (90%)
Writing library : XviD 1.2.1 (UTC 2008-12-04)
Audio
ID : 1
Format : AC-3
Format/Info : Audio Coding 3
Mode extension : CM (complete main)
Format settings, Endianness : Big
Codec ID : 2000
Duration : 2h 26mn
Bit rate mode : Constant
Bit rate : 192 Kbps
Channel(s) : 2 channels
Channel positions : Front: L R
Sampling rate : 48.0 KHz
Compression mode : Lossy
Stream size : 201 MiB (9%)
Alignment : Split accross interleaves
Interleave, duration : 42 ms (1.00 video frame)
Interleave, preload duratio : 500 ms

BDRip 1080p скачать => ЗДЕСЬ

   
Торрент: Зарегистрирован [14 мар 2018, 19:44] Индийское кино Скачать торрент Магнет ссылка
Скачать торрент
[ Размер 11.04 КБ / Просмотров 23 ]
Статус:
Проверен
 
.torrent скачан: 1 раз
Размер: 2.11 ГБ (2 270 238 720 байт)
   Стать Автором раздачи
 
 
Цитата
  • Похожие торренты
    Ответы
    Просмотры
    Последнее сообщение

Вернуться в Индийское кино

Кто сейчас на конференции

Сейчас эту тему просматривают: нет зарегистрированных пользователей и гости: 1