Марафет: Ещё одна история любви / Проект «Чистая Индия». История любви / Toilet - Ek Prem Katha (Шри Нарайан Сингх / Shree Narayan Singh) [2017, Индия, Драма, комедия, социальный, HDRip] MVO (Zee TV)

 Статистика раздачи 
Размер: 1.45 ГБ   |  Зарегистрирован: 14 мар 2018, 19:29   |   .torrent скачан: 3 раз
Сидеров: 127  [ 0 байт/сек ]     Личеров: 3  [ 0 байт/сек ]  
  
Аватара пользователя
Я на сайте
 
Раздал: 2.28 ТБ
Скачал: 6.02 ГБ
Ратио: 387.660
Сообщения: 171800
Стаж: 1 год 4 месяца

Марафет: Ещё одна история любви / Toilet - Ek Prem Katha

Страна: Индия
Жанр: Драма, комедия, социальный
Год выпуска: 2017
Продолжительность: 02:33:17
Перевод: Профессиональный (многоголосый закадровый) - Zee TV
Субтитры: Нет
Режиссер: Шри Нарайан Сингх / Shree Narayan Singh
В ролях: Акшай Кумар, Бхуми Педнекар, Анупам Кхер, Сана Кхан, Раджеш Шарма, Дивиенду Шарма, Сачин Кхедекар, Аеша Раза, Шобха Кхоте
Описание: Кешав и Джая живут в сельской местности. В этом регионе Индии, по меньшей мере, 80% жителей не имеют доступа к туалетам. В день свадьбы между влюблёнными происходит ссора, потому что Джая обнаруживает, что в доме Кешава нет туалета. Тогда она решает бросить своего любимого. Кешав пытается сделать все возможное, чтобы установить туалет в свой дом и вернуть свою любовь. Однако ему предстоит столкнуться с неповоротливой древнейшей системой ценностей страны.
IMDb | Кинопоиск

Качество видео: HDRip
Формат видео: AVI
Видео: 688x288 (2.39:1), 24.000 fps, XviD build 50 ~1219 kbps avg, 0.26 bit/pixel
Аудио: 48 kHz, MPEG Layer 3, 2 ch, ~128.00 kbps
Сэмпл
Релиз:
Рип: soso4eg
За русский звук большое спасибо Tarahb =)




General
Complete name : F:\1_1\Toilet.Ek.Prem.Katha.2017.P.HDRip.XviD.BwTorrents.avi
Format : AVI
Format/Info : Audio Video Interleave
File size : 1.45 GiB
Duration : 2h 33mn
Overall bit rate : 1 357 Kbps
Writing application : VirtualDubMod 1.6.0.0 SURROUND (build 2560/release)
Video
ID : 0
Format : MPEG-4 Visual
Format profile : Advanced [email protected]
Format settings, BVOP : 2
Format settings, QPel : No
Format settings, GMC : No warppoints
Format settings, Matrix : Default (H.263)
Codec ID : XVID
Codec ID/Hint : XviD
Duration : 2h 33mn
Bit rate : 1 220 Kbps
Width : 688 pixels
Height : 288 pixels
Display aspect ratio : 2.40:1
Frame rate : 24.000 fps
Color space : YUV
Chroma subsampling : 4:2:0
Bit depth : 8 bits
Scan type : Progressive
Compression mode : Lossy
Bits/(Pixel*Frame) : 0.256
Stream size : 1.31 GiB (90%)
Writing library : XviD 1.2.1 (UTC 2008-12-04)
Audio
ID : 1
Format : MPEG Audio
Format version : Version 1
Format profile : Layer 3
Mode : Joint stereo
Mode extension : MS Stereo
Codec ID : 55
Codec ID/Hint : MP3
Duration : 2h 33mn
Bit rate mode : Constant
Bit rate : 128 Kbps
Channel(s) : 2 channels
Sampling rate : 48.0 KHz
Compression mode : Lossy
Stream size : 140 MiB (9%)
Alignment : Aligned on interleaves
Interleave, duration : 42 ms (1.00 video frame)
Interleave, preload duratio : 504 ms
   
Торрент: Зарегистрирован [14 мар 2018, 19:29] Индийское кино Скачать торрент Магнет ссылка
Скачать торрент
[ Размер 15 КБ / Просмотров 23 ]
Статус:
Проверен
 
.torrent скачан: 3 раз
Размер: 1.45 ГБ (1 559 867 392 байт)
   Стать Автором раздачи
 
 
Цитата
  • Похожие торренты
    Ответы
    Просмотры
    Последнее сообщение

Вернуться в Индийское кино

Кто сейчас на конференции

Сейчас эту тему просматривают: нет зарегистрированных пользователей и гости: 1