Ф. М. Достоевский - Ф. М. Достоевский. Сон смешного человека. Елка и свадьба. Честный вор [Альберт Филозов, 2006 г., 02:26.00, MP3]

 Статистика раздачи 
Размер: 202.12 МБ   |  Зарегистрирован: 25 янв 2012, 13:14   |   .torrent скачан: 0 раз
Сидеров: 0  [ 0 байт/сек ]     Личеров: 30  [ 0 байт/сек ]  
  
Аватара пользователя
Администратор
Администратор
 
Раздал: 24.48 ТБ
Скачал: 388.83 ГБ
Ратио: 145.347
Сообщения: 6101
Стаж: 7 лет 10 месяцев 12 дней
Откуда: Lithuania

Ф. М. Достоевский. Сон смешного человека. Елка и свадьба. Честный вор



Год выпуска: 2006
Автор: Ф. М. Достоевский
Время звучания: 02:26.00
Исполнитель: Альберт Филозов
Жанр: Русская литература
Издательство: ООО «Империя звука»
Серия: Антология психологического рассказа
Тип: аудиокнига
Аудио кодек: MP3
Битрейт аудио: 192 kbps
Описание
В сборнике представлены психологического рассказы Ф. М. Достоевского в прекрасном исполнении известного артиста Альберта Филозова.
CD 1

Общее
Полное имя : D:\АУДИО КНИГИ\Ф. М. Достоевский. Рассказы\Ф. М. Достоевский. Рассказы CD1\Book\01_01. F. M. Dostoevskiy - Son smeshnogo cheloveka.mp3
Формат : MPEG Audio
Размер файла : 22,9 Мбайт
Продолжительность : 16 м.
Общий поток : 192 Кбит/сек
Альбом : Rasskazy
Трек : Son smeshnogo cheloveka
Исполнитель : F. M. Dostoevskiy
Жанр : Speech
Дата записи : 2006
Библиотека кодирования : LAME3.93ЄЄЄЄЄЄЄЄЄЄЄЄ
Примечание : Chitaet Al'bert Philozov

Аудио
Формат : MPEG Audio
Версия формата : Version 1
Профиль формата : Layer 3
Продолжительность : 16 м.
Вид битрейта : Постоянный
Битрейт : 192 Кбит/сек
Каналы : 2 канала
Частота : 44,1 КГц
Метод сжатия : С потерями
Размер потока : 22,9 Мбайт (100%)
Библиотека кодирования : LAME3.93ЄЄЄЄЄЄЄЄЄЄЄЄ

CD 2

Общее
Полное имя : D:\АУДИО КНИГИ\Ф. М. Достоевский. Рассказы\Ф. М. Достоевский. Рассказы CD2\Book\02 _01. F. M. Dostoevskiy - Elka i svad'ba. Fragment 01.mp3
Формат : MPEG Audio
Размер файла : 16,5 Мбайт
Продолжительность : 12 м.
Общий поток : 192 Кбит/сек
Альбом : Rasskazy
Трек : Elka i svad'ba. Fragment 01
Исполнитель : F. M. Dostoevskiy
Жанр : Speech
Дата записи : 2006
Библиотека кодирования : LAME3.93
Примечание : Chitaet Al'bert Philozov

Аудио
Формат : MPEG Audio
Версия формата : Version 1
Профиль формата : Layer 3
Продолжительность : 12 м.
Вид битрейта : Постоянный
Битрейт : 192 Кбит/сек
Каналы : 2 канала
Частота : 44,1 КГц
Метод сжатия : С потерями
Размер потока : 16,5 Мбайт (100%)
Библиотека кодирования : LAME3.93

Содержание:

- Сон смешного человека
- Елка и свадьба
- Честный вор
Не забывайте говорить Спасибо. Не уходите с раздачи!   
Торрент: Зарегистрирован [25 янв 2012, 13:14] Для скачивания .torrent
необходима регистрация
Или скачать с помощью
MediaGet
Статус:
Проверен
 
.torrent скачан: 0 раз
Размер: 202.12 МБ (211 940 190 байт)
   Стать Автором раздачи
   
Цитата
  • Похожие торренты
    Ответы
    Просмотры
    Последнее сообщение

Вернуться в Художественная литература, Классика

Кто сейчас на конференции

Сейчас эту тему просматривают: нет зарегистрированных пользователей и гости: 1