Тантрический гид. Повышение потенции и улучшение оргазмов / The Tantric Guide[Кай Паркер, Уэсли Эмерсон / Kay Parker, Wesley Emerson, Эротика, Обучающий, Документальный] (1994) DVDRip

 Статистика раздачи 
Размер: 356.16 МБ   |  Зарегистрирован: 24 янв 2012, 13:36   |   .torrent скачан: 16 раз
Сидеров: 24  [ 0 байт/сек ]     Личеров: 21  [ 0 байт/сек ]  
  
Аватара пользователя
Администратор
Администратор
Автор темы
Раздал: 24.47 ТБ
Скачал: 388.83 ГБ
Ратио: 145.334
Сообщения: 6032
Стаж: 7 лет 2 месяца 11 дней
Откуда: Lithuania

The Tantric Guide To Sexual Potency and Extended Orgasm


Оригинальное название: Тантрический гид. Повышение потенции и улучшение оргазмов / The Tantric Guide To Sexual Potency and Extended Orgasm
Дата выхода: 1994
Страна: USA
Жанр: Эротика, Обучающий, Документальный
Перевод: Оригинал
Продолжительность: 01:23:23
Режиссёр: Кай Паркер, Уэсли Эмерсон / Kay Parker, Wesley Emerson
В ролях: Ариэль Дэй, Дейдри Голландии, Джонатан Морган, Кай Паркер, Лори Камерон, Майк Хорнер, Шарон Кейн, Стив Дрэйк
Дополнительно: В этом обучающем видео режиссер Кай Паркер и 4 пары продемонстрируют новый подход к улучшению интимных отношений при помощи Тантры. Они продемонстрируют вам тантрические се-кс позиции, техники разогрева, как продлить се-ксуальный акт и достичь новых высот удовольствия.
Качество: DVDRip
Формат аудио: WMA
Формат видео: DivX
Видео: DivX 5 440x360 25.00fps 575Kbps
Аудио: Windows Media Audio 16000Hz stereo 16Kbps
Общее
Полное имя : C:\Users\007\Desktop\The_Tantric_Guide_To_Sexual_Potency_and_Extended_Orgasm.AVI
Формат : AVI
Формат/Информация : Audio Video Interleave
Размер файла : 356 Мбайт
Продолжительность : 1 ч. 23 м.
Общий поток : 597 Кбит/сек
Режиссёр : created.with.SUPER(C).v2009.bld.36
Программа кодирования : SUPER(C) - by eRightSoft

Видео
Идентификатор : 0
Формат : MPEG-4 Visual
Профиль формата : [email protected]
Параметр BVOP формата : Нет
Параметр QPel формата : Нет
Параметр GMC формата : Без точки перехода
Параметр матрицы формата : Default (H.263)
Идентификатор кодека : DX50
Идентификатор кодека/Подсказка : DivX 5
Продолжительность : 1 ч. 23 м.
Битрейт : 576 Кбит/сек
Ширина : 440 пикселей
Высота : 360 пикселей
Соотношение сторон : 1,222
Частота кадров : 25,000 кадров/сек
Цветовое пространство : YUV
Субдискретизация насыщенности : 4:2:0
Битовая глубина : 8 бит
Тип развёртки : Прогрессивная
Метод сжатия : С потерями
Бит/(Пиксели*Кадры) : 0.145
Размер потока : 343 Мбайт (96%)
Библиотека кодирования : SUPER(C)

Аудио
Идентификатор : 1
Формат : WMA
Версия формата : Version 2
Идентификатор кодека : 161
Идентификатор кодека/Информация : Windows Media Audio
Продолжительность : 1 ч. 23 м.
Битрейт : 16,0 Кбит/сек
Каналы : 2 канала
Частота : 16,0 КГц
Битовая глубина : 16 бит
Размер потока : 9,54 Мбайт (3%)
Продолжительность промежутка : 320 мс. (8,00 видеокадров)
Время предзагрузки промежутка : 640 мс.





   
Торрент: Зарегистрирован [24 янв 2012, 13:36] Разное (Видеоуроки) Скачать торрент Магнет ссылка
Скачать торрент
[ Размер 14.29 КБ / Просмотров 416 ]
Статус:
Проверен
 
.torrent скачан: 16 раз
Размер: 356.16 МБ (373 456 430 байт)
   
 
 
Цитата
  • Похожие торренты
    Ответы
    Просмотры
    Последнее сообщение

Вернуться в Разное (Видеоуроки)

Кто сейчас на конференции

Сейчас эту тему просматривают: нет зарегистрированных пользователей и гости: 1