(Instrumental/Flamenco) [CD] ДиДюЛя & Chris Wonderful - Аквамарин - 2017, FLAC (image+.cue), lossless

 Статистика раздачи 
Размер: 301.42 МБ   |  Зарегистрирован: 08 мар 2018, 22:05   |   .torrent скачан: 5 раз
Сидеров: 269  [ 0 байт/сек ]     Личеров: 61  [ 0 байт/сек ]  
  
Аватара пользователя
 
Раздал: 2.95 ТБ
Скачал: 10.85 ГБ
Ратио: 278.324
Сообщения: 181745
Стаж: 1 год 5 месяцев 28 дней

ДиДюЛя & Chris Wonderful / Аквамарин
Жанр: Instrumental/Flamenco
Носитель: CD
Страна-производитель диска (релиза): Россия
Год издания: 2017
Издатель (лейбл): Первое музыкальное Издательство
Аудиокодек: FLAC (*.flac)
Тип рипа: image+.cue
Битрейт аудио: lossless
Продолжительность: 00:38:02
Источник (релизер): Собственный диск
Наличие сканов в содержимом раздачи: да
Треклист:
01. Свадебное путешествие (4:16)
02. Страна дураков (3:59)
03. Белый месяц (3:41)
04. Посох шамана (3:48)
05. Шёлковая лента (5:16)
06. Аквамарин (5:04)
07. Неоновый город (3:21)
08. Сезон дождей (4:35)
09. Поединок (3:58)
Код: Выделить всё
Exact Audio Copy V1.0 beta 3 from 29. August 2011
Отчёт EAC об извлечении, выполненном 19. декабря 2017, 19:52
Accept / Metal Heart
Дисковод: PLEXTOR DVDR   PX-708A   Adapter: 4  ID: 1
Режим чтения                 : Достоверность
Использование точного потока : Да
Отключение кэша аудио        : Да
Использование указателей C2  : Нет
Коррекция смещения при чтении                     : 30
Способность читать области Lead-in и Lead-out     : Нет
Заполнение пропущенных сэмплов тишиной            : Да
Удаление блоков с тишиной в начале и конце        : Нет
При вычислениях CRC использовались нулевые сэмплы : Да
Интерфейс                                         : Встроенный Win32-интерфейс для Win NT/2000
Выходной формат : Внутренние WAV-операции
Формат сэмплов  : 44.100 Гц; 16 бит; стерео
TOC извлечённого CD
     Трек |   Старт  | Длительность | Начальный сектор | Конечный сектор
    ---------------------------------------------------------------------
       1  |  0:00.00 |    4:16.19   |          00      |      24359
       2  |  4:16.19 |    3:06.43   |       24360      |      38352
       3  |  8:15.66 |    3:47.37   |       38353      |      55414
       4  | 11:57.13 |    3:08.68   |       55415      |      69582
       5  | 15:45.64 |    4:04.25   |       69583      |      87907
       6  | 21:01.73 |    3:47.00   |       87908      |     104932
       7  | 26:06.41 |    4:24.12   |      104933      |     124744
       8  | 29:27.64 |    3:33.15   |      124745      |     140734
       9  | 34:03.00 |    3:34.05   |      140735      |     156789
Характеристики диапазона извлечения и сообщения об ошибках
Выбранный диапазон
     Имя файла C:\24\ДиДюЛя - Аквамарин '2017.wav
     Пиковый уровень 100.0 %
     Скорость извлечения 2.4 X
     Качество диапазона 100.0 %
     CRC копии 1F1DC364
     Копирование... OK
Ошибок не произошло
Конец отчёта
==== Контрольная сумма отчёта 652406797108E7BD083F4CCDA2F24170F65CD290CE6564F29C1FF08123C87CF3 ====
Код: Выделить всё
REM DATE 2017
REM DISCID 8C08E909
REM COMMENT "ExactAudioCopy v1.0b3"
PERFORMER "ДиДюЛя"
TITLE "Аквамарин"
FILE "ДиДюЛя - Аквамарин '2017.wav" WAVE
  TRACK 01 AUDIO
    TITLE "01 ????????? ???????????"
    PERFORMER "Дидюля"
    INDEX 01 00:00:00
  TRACK 02 AUDIO
    TITLE "02 ?????? ???????"
    PERFORMER "Дидюля"
    INDEX 01 04:16:19
  TRACK 03 AUDIO
    TITLE "03 ?????? ?????"
    PERFORMER "Дидюля"
    INDEX 01 08:15:66
  TRACK 04 AUDIO
    TITLE "04 ????? ??????"
    PERFORMER "Дидюля"
    INDEX 01 11:57:13
  TRACK 05 AUDIO
    TITLE "05 ???????? ?????"
    PERFORMER "Дидюля"
    INDEX 01 15:45:64
  TRACK 06 AUDIO
    TITLE "06 ?????????"
    PERFORMER "Дидюля"
    INDEX 01 21:01:73
  TRACK 07 AUDIO
    TITLE "07 ????????? ?????"
    PERFORMER "Дидюля"
    INDEX 01 26:06:41
  TRACK 08 AUDIO
    TITLE "08 ????? ???????"
    PERFORMER "Дидюля"
    INDEX 01 29:27:64
  TRACK 09 AUDIO
    TITLE "09 ????????"
    PERFORMER "Дидюля"
    INDEX 01 34:03:00
Не забывайте говорить Спасибо. Не уходите с раздачи!   
Торрент: Зарегистрирован [08 мар 2018, 22:05] Для скачивания .torrent
необходима регистрация
Или скачать с помощью
MediaGet
Статус:
Проверен
 
.torrent скачан: 5 раз
Размер: 301.42 МБ (316 066 028 байт)
   Стать Автором раздачи
   
Цитата

Вернуться в Music from other genres

Кто сейчас на конференции

Сейчас эту тему просматривают: нет зарегистрированных пользователей и гости: 1