Давид Тухманов - Элегия (2006) [APE|Lossless|image + .cue] <Советская эстрада, Ретро>

 Статистика раздачи 
Размер: 417.07 МБ   |  Зарегистрирован: 08 янв 2018, 16:26   |   .torrent скачан: 0 раз
Сидеров: 0  [ 0 байт/сек ]     Личеров: 0  [ 0 байт/сек ]  
  
Аватара пользователя
 
Раздал: 1.84 ТБ
Скачал: 4.79 ГБ
Ратио: 394.355
Сообщения: 136097
Стаж: 1 год 2 месяца 5 дней

Давид Тухманов - Элегия (2006)

Жанр: Советская эстрада, Ретро
Издание: Bomba Music - BoMB 033-207
Продолжительность: 01:10:16

Кодек: APE
Битрейт: Lossless
Тип рипа: image + .cue

Треклист:
01. Элегия (И.Кохановский) - Т.Гвердцители
02. Как жаль (А.Дементьев) - Я.Йоала
03. XXIII век (С.Кирсанов) - Д.Тухманов, гр. "Москва"
04. Прибалтика (Р.Казакова) - В.Леонтьев
05. Петербург (И.Анненский) - Д.Тухманов
06. Слайды (М.Пляцковский) - С.Ротару
07. Пожар (Л.Стефанова) - В.Леонтьев
08. Ночь (В.Маяковский) - Н.Носков
09. Магазин "Цветы" (Л.Григорьева) - С.Ротару
10. Бреду по жёлтым склонам (С.Романов) - В.Леонтьев
11. Кружатся диски (И.Кохановский) - В.Леонтьев
12. В четыре руки (Б.Дубровин) - А.Стоцкая, В.Азарх
13. Короли , и валеты, и тройки (Р.Казакова) - В.Леонтьев
14. Аист на крыше (А.Поперечный) - С.Ротару
15. Родина моя (Р.Рождественский) - С.Ротару
Код: Выделить всё
Exact Audio Copy V0.99 prebeta 4 from 23. January 2008

Отчёт EAC об извлечении, выполненном 5. февраля 2009, 18:08

Тухманов Давид / Элегия

Дисковод: Optiarc DVD RW AD-5170A   Adapter: 0  ID: 0

Режим чтения                 : Достоверность
Использование точного потока : Да
Отключение кэша аудио        : Да
Использование указателей C2  : Нет

Коррекция смещения при чтении                     : 48
Способность читать области Lead-in и Lead-out     : Нет
Заполнение пропущенных сэмплов тишиной            : Да
Удаление блоков с тишиной в начале и конце        : Нет
При вычислениях CRC использовались нулевые сэмплы : Да
Интерфейс                                         : Установленный внешний ASPI-интерфейс

Выходной формат : Внутренние WAV-операции
Формат сэмплов  : 44.100 Гц; 16 бит; стерео

TOC извлечённого CD

     Трек |   Старт  | Длительность | Начальный сектор | Конечный сектор
    ---------------------------------------------------------------------
       1  |  0:00.00 |    4:24.04   |           0      |      19803
       2  |  4:24.04 |    5:44.45   |       19804      |      45648
       3  | 10:08.49 |    4:18.37   |       45649      |      65035
       4  | 14:27.11 |    4:36.00   |       65036      |      85735
       5  | 19:03.11 |    4:37.06   |       85736      |     106516
       6  | 23:40.17 |    4:42.23   |      106517      |     127689
       7  | 28:22.40 |    5:11.34   |      127690      |     151048
       8  | 33:33.74 |    4:14.48   |      151049      |     170146
       9  | 37:48.47 |    4:58.60   |      170147      |     192556
      10  | 42:47.32 |    6:00.25   |      192557      |     219581
      11  | 48:47.57 |    3:39.47   |      219582      |     236053
      12  | 52:27.29 |    4:24.38   |      236054      |     255891
      13  | 56:51.67 |    4:55.10   |      255892      |     278026
      14  | 61:47.02 |    3:37.08   |      278027      |     294309
      15  | 65:24.10 |    4:49.72   |      294310      |     316056

Характеристики диапазона извлечения и сообщения об ошибках

Выбранный диапазон

     Имя файла J:\Audio\ДАВИД ТУХМАНОВ\Элегия\Тухманов Давид - Элегия.wav

     Пиковый уровень 100.0 %
     Качество диапазона 99.9 %
     CRC копии 21E712E3
     Копирование... OK

Ошибок не произошло

AccurateRip: сводка

Трек  1  нет в базе данных
Трек  2  нет в базе данных
Трек  3  нет в базе данных
Трек  4  нет в базе данных
Трек  5  нет в базе данных
Трек  6  нет в базе данных
Трек  7  нет в базе данных
Трек  8  нет в базе данных
Трек  9  нет в базе данных
Трек 10  нет в базе данных
Трек 11  нет в базе данных
Трек 12  нет в базе данных
Трек 13  нет в базе данных
Трек 14  нет в базе данных
Трек 15  нет в базе данных

Ни одного трека нет в базе AccurateRip

Конец отчёта
Код: Выделить всё
REM GENRE Pop
REM DATE 2006
REM DISCID D010760F
REM COMMENT "ExactAudioCopy v0.99pb4"
PERFORMER "Тухманов Давид"
TITLE "Элегия"
FILE "Тухманов Давид - Элегия.ape" WAVE
  TRACK 01 AUDIO
    TITLE "Гвердцители Т. / Элегия"
    PERFORMER "Тухманов Давид"
    INDEX 01 00:00:00
  TRACK 02 AUDIO
    TITLE "Йоала Я. / Как жаль"
    PERFORMER "Тухманов Давид"
    INDEX 01 04:24:04
  TRACK 03 AUDIO
    TITLE "МОСКВА / XXIII век"
    PERFORMER "Тухманов Давид"
    INDEX 01 10:08:49
  TRACK 04 AUDIO
    TITLE "Леонтьев В. / Прибалтика"
    PERFORMER "Тухманов Давид"
    INDEX 01 14:27:11
  TRACK 05 AUDIO
    TITLE "Тухманов Д. / Перербург"
    PERFORMER "Тухманов Давид"
    INDEX 01 19:03:11
  TRACK 06 AUDIO
    TITLE "Ротару С. / Слайды"
    PERFORMER "Тухманов Давид"
    INDEX 01 23:40:17
  TRACK 07 AUDIO
    TITLE "Леонтьев В. / Пожар"
    PERFORMER "Тухманов Давид"
    INDEX 01 28:22:40
  TRACK 08 AUDIO
    TITLE "Носков Н. / Ночь"
    PERFORMER "Тухманов Давид"
    INDEX 01 33:33:74
  TRACK 09 AUDIO
    TITLE "Ротару С. / Магазин 'Цветы'"
    PERFORMER "Тухманов Давид"
    INDEX 01 37:48:47
  TRACK 10 AUDIO
    TITLE "Леонтьев В. / Бреду по желтым склонам"
    PERFORMER "Тухманов Давид"
    INDEX 01 42:47:32
  TRACK 11 AUDIO
    TITLE "Леонтьев В. / Кружатся диски"
    PERFORMER "Тухманов Давид"
    INDEX 01 48:47:57
  TRACK 12 AUDIO
    TITLE "Стоцкая А. Азарх В. / В четыре руки"
    PERFORMER "Тухманов Давид"
    INDEX 01 52:27:29
  TRACK 13 AUDIO
    TITLE "Леонтьев В. / Короли, и валеты, и тройки"
    PERFORMER "Тухманов Давид"
    INDEX 01 56:51:67
  TRACK 14 AUDIO
    TITLE "Ротару С. / Аист на крыше"
    PERFORMER "Тухманов Давид"
    INDEX 01 61:47:02
  TRACK 15 AUDIO
    TITLE "Ротару С. / Родина моя"
    PERFORMER "Тухманов Давид"
    INDEX 01 65:24:10
Код: Выделить всё
-----------------------

DON'T MODIFY THIS FILE

-----------------------

PERFORMER: auCDtect Task Manager, ver. 1.6.0 RC1 build 1.6.0.1
Copyright (c) 2008-2010 y-soft. All rights reserved
[url=http://y-soft.org]http://y-soft.org[/url]

ANALYZER: auCDtect: CD records authenticity detector, version 0.8.2
Copyright (c) 2004 Oleg Berngardt. All rights reserved.
Copyright (c) 2004 Alexander Djourik. All rights reserved.

FILE: Тухманов Давид - Элегия.ape
  Size: 432123956 Hash: 2D04A2C38F63155D81E641508B2BC3D8 Accuracy: -m0
  Conclusion: CDDA 100%
  Signature: 05942452CD8629241AC38D7A652DF97407CF8195

Время раздачи: 24/7 (до появления первых 3-5 скачавших)
   
Торрент: Зарегистрирован [08 янв 2018, 16:26] Author's Song Скачать торрент Магнет ссылка
Скачать торрент
[ Размер 17.65 КБ / Просмотров 11 ]
Статус:
Проверен
 
.torrent скачан: 0 раз
Размер: 417.07 МБ (437 333 314 байт)
   Стать Автором раздачи
 
 
Цитата

Вернуться в Author's Song

Кто сейчас на конференции

Сейчас эту тему просматривают: нет зарегистрированных пользователей и гости: 1