Nekopara | Кошачий рай [2017, OVA] WEB-DL 1080p raw

 Статистика раздачи 
Размер: 2.18 ГБ   |  Зарегистрирован: 08 янв 2018, 16:20   |   .torrent скачан: 4 раз
Сидеров: 4  [ 0 байт/сек ]     Личеров: 1  [ 0 байт/сек ]  
  
Аватара пользователя
 
Раздал: 3.15 ТБ
Скачал: 38.27 ГБ
Ратио: 84.194
Сообщения: 190172
Стаж: 1 год 6 месяцев 28 дней
СообщениеДобавлено: 08 янв 2018, 15:34


Nekopara | Кошачий рай | ネコぱら

Жанр: комедия
Тип: OVA
Продолжительность: 1 эп. по 60 мин.
Количество серий: 1 из 1
Выпуск: 22.12.2017
Автор оригинала: Юкихито
Режиссер: Хаяси Хироки
Ссылки: World-Art, AniDB, MyAnimeList
Описание:
Касё Минадзуки, сын известной кондитерской семьи, съехал, чтобы открыть свою собственную кондитерскую «La Soleil». Когда курьер привозит его вещи с переезда, он неожиданно находит спрятавшихся среди вещей двух кошечек, Чоколу и Ваниллу, которых растила его семья. Касё стойко пытается отправить их обратно, но девочки убеждают его позволить им остаться, жить с ним и помогать ему. В итоге парень открывает «La Soleil» вместе с кошечками, берёт их на работу и проводит с ними свой досуг. Его часто навещает его младшая сестра Шигурэ с другими кошечками семьи Минадзуки и вскоре начинает подготовку Чоколы и Ваниллы к сдаче теста на получение колокольчика.
Качество видео: WEB-DL
Видео: AVC (High@L5.1), 1920x1080 (16:9), ~23.976 fps, ~5000 kbps
Аудио: AAC LC, 2 ch, 48 kHz, ~384 kbps | Звук: Японский
Язык озвучки: Японский
Субтитры: #1: Русские; #2: Мультиязычные (см. MediaInfo)
Перевод: Crunchyroll/Steam; А2 (Андрей Зайцев и Алиса Трушина)

Скриншоты:



Код: Выделить всё
General
Unique ID                   : 73658928846235421820565389143922264766 (0x376A31949894E57203955C1F0FC94ABE)
Complete name               : NEKOPARA OVA\NEKOPARA OVA (Web 1080p).mkv
Format                      : Matroska
Format version              : Version 4 / Version 2
File size                   : 2.18 GiB
Duration                    : 58 min 4 s
Overall bit rate            : 5 363 kb/s
Movie name                  : NEKOPARA OVA
Encoded date                : UTC 2017-12-27 03:24:39
Writing application         : mkvmerge v19.0.0 ('Brave Captain') 32-bit
Writing library             : libebml v1.3.5 + libmatroska v1.4.8

Video
ID                          : 1
Format                      : AVC
Format/Info                 : Advanced Video Codec
Format profile              : [url=http://nnm-club.name/mailto:High@L5.1]High@L5.1[/url]
Format settings             : CABAC / 16 Ref Frames
Format settings, CABAC      : Yes
Format settings, ReFrames   : 16 frames
Codec ID                    : V_MPEG4/ISO/AVC
Duration                    : 58 min 4 s
Bit rate                    : 5 000 kb/s
Width                       : 1 920 pixels
Height                      : 1 080 pixels
Display aspect ratio        : 16:9
Frame rate mode             : Constant
Frame rate                  : 23.976 (24000/1001) FPS
Original frame rate         : 23.976 (23976/1000) FPS
Color space                 : YUV
Chroma subsampling          : 4:2:0
Bit depth                   : 8 bits
Scan type                   : Progressive
Bits/(Pixel*Frame)          : 0.101
Stream size                 : 2.02 GiB (93%)
Writing library             : x264 core 148 r2579 73ae2d1
Encoding settings           : cabac=1 / ref=16 / deblock=1:1:1 / analyse=0x3:0x133 / me=umh / subme=10 / psy=1 / psy_rd=0.40:0.00 / mixed_ref=1 / me_range=24 / chroma_me=1 / trellis=2 / 8x8dct=1 / cqm=0 / deadzone=21,11 / fast_pskip=1 / chroma_qp_offset=-2 / threads=34 / lookahead_threads=8 / sliced_threads=0 / nr=0 / decimate=1 / interlaced=0 / bluray_compat=0 / constrained_intra=0 / bframes=10 / b_pyramid=2 / b_adapt=2 / b_bias=0 / direct=3 / weightb=1 / open_gop=0 / weightp=2 / keyint=24 / keyint_min=13 / scenecut=0 / intra_refresh=0 / rc_lookahead=47 / rc=2pass / mbtree=1 / bitrate=5000 / ratetol=1.0 / qcomp=0.60 / qpmin=0 / qpmax=69 / qpstep=4 / cplxblur=20.0 / qblur=0.5 / vbv_maxrate=10000 / vbv_bufsize=20000 / nal_hrd=none / filler=0 / ip_ratio=1.40 / aq=1:0.60
Language                    : Japanese
Default                     : Yes
Forced                      : No

Audio
ID                          : 2
Format                      : AAC
Format/Info                 : Advanced Audio Codec
Format profile              : LC
Codec ID                    : A_AAC-2
Duration                    : 58 min 4 s
Bit rate                    : 384 kb/s
Channel(s)                  : 2 channels
Channel positions           : Front: L R
Sampling rate               : 48.0 kHz
Frame rate                  : 46.875 FPS (1024 SPF)
Compression mode            : Lossy
Stream size                 : 158 MiB (7%)
Language                    : Japanese
Default                     : Yes
Forced                      : No

Text #1
ID                          : 3
Format                      : UTF-8
Codec ID                    : S_TEXT/UTF8
Codec ID/Info               : UTF-8 Plain Text
Duration                    : 54 min 0 s
Bit rate                    : 84 b/s
Count of elements           : 820
Stream size                 : 33.3 KiB (0%)
Title                       : English
Language                    : English
Default                     : Yes
Forced                      : No

Text #2
ID                          : 4
Format                      : UTF-8
Codec ID                    : S_TEXT/UTF8
Codec ID/Info               : UTF-8 Plain Text
Duration                    : 54 min 0 s
Bit rate                    : 72 b/s
Count of elements           : 809
Stream size                 : 28.8 KiB (0%)
Title                       : French
Language                    : French
Default                     : No
Forced                      : No

Text #3
ID                          : 5
Format                      : UTF-8
Codec ID                    : S_TEXT/UTF8
Codec ID/Info               : UTF-8 Plain Text
Duration                    : 54 min 0 s
Bit rate                    : 85 b/s
Count of elements           : 820
Stream size                 : 33.7 KiB (0%)
Title                       : Spanish
Language                    : Spanish
Default                     : No
Forced                      : No

Text #4
ID                          : 6
Format                      : UTF-8
Codec ID                    : S_TEXT/UTF8
Codec ID/Info               : UTF-8 Plain Text
Duration                    : 54 min 0 s
Bit rate                    : 93 b/s
Count of elements           : 860
Stream size                 : 36.9 KiB (0%)
Title                       : German
Language                    : German
Default                     : No
Forced                      : No

Text #5
ID                          : 7
Format                      : UTF-8
Codec ID                    : S_TEXT/UTF8
Codec ID/Info               : UTF-8 Plain Text
Duration                    : 54 min 0 s
Bit rate                    : 78 b/s
Count of elements           : 816
Stream size                 : 31.0 KiB (0%)
Title                       : Portuguese
Language                    : Portuguese
Default                     : No
Forced                      : No

Text #6
ID                          : 8
Format                      : UTF-8
Codec ID                    : S_TEXT/UTF8
Codec ID/Info               : UTF-8 Plain Text
Duration                    : 54 min 0 s
Bit rate                    : 140 b/s
Count of elements           : 828
Stream size                 : 55.4 KiB (0%)
Title                       : Russian
Language                    : Russian
Default                     : No
Forced                      : No

Text #7
ID                          : 9
Format                      : UTF-8
Codec ID                    : S_TEXT/UTF8
Codec ID/Info               : UTF-8 Plain Text
Duration                    : 51 min 47 s
Bit rate                    : 105 b/s
Count of elements           : 957
Stream size                 : 40.2 KiB (0%)
Title                       : Japanese
Language                    : Japanese
Default                     : No
Forced                      : No

Text #8
ID                          : 10
Format                      : UTF-8
Codec ID                    : S_TEXT/UTF8
Codec ID/Info               : UTF-8 Plain Text
Duration                    : 54 min 0 s
Bit rate                    : 83 b/s
Count of elements           : 820
Stream size                 : 33.2 KiB (0%)
Title                       : Chinese (Simplified)
Language                    : Chinese
Default                     : No
Forced                      : No

Text #9
ID                          : 11
Format                      : UTF-8
Codec ID                    : S_TEXT/UTF8
Codec ID/Info               : UTF-8 Plain Text
Duration                    : 54 min 0 s
Bit rate                    : 84 b/s
Count of elements           : 822
Stream size                 : 33.3 KiB (0%)
Title                       : Chinese (Traditional)
Language                    : Chinese
Default                     : No
Forced                      : No

Text #10
ID                          : 12
Format                      : UTF-8
Codec ID                    : S_TEXT/UTF8
Codec ID/Info               : UTF-8 Plain Text
Duration                    : 54 min 0 s
Bit rate                    : 87 b/s
Count of elements           : 826
Stream size                 : 34.4 KiB (0%)
Title                       : Korean
Language                    : Korean
Default                     : No
Forced                      : No
Время раздачи:
круглосуточно
Не забывайте говорить Спасибо. Не уходите с раздачи!   
Торрент: Зарегистрирован [08 янв 2018, 16:20] Для скачивания .torrent
необходима регистрация
Или скачать с помощью
MediaGet
Статус:
Проверен
 
.torrent скачан: 4 раз
Размер: 2.18 ГБ (2 336 125 674 байт)
   Стать Автором раздачи
   
Цитата

Вернуться в Аниме, Японские мультфильмы

Кто сейчас на конференции

Сейчас эту тему просматривают: нет зарегистрированных пользователей и гости: 1