Новый Ералаш (2018.01.07) HDTV [H.264/1080i-LQ]

 Статистика раздачи 
Размер: 469.21 МБ   |  Зарегистрирован: 08 янв 2018, 08:12   |   .torrent скачан: 1 раз
Сидеров: 40  [ 0 байт/сек ]     Личеров: 2  [ 0 байт/сек ]  
  
Аватара пользователя
 
Раздал: 2.08 ТБ
Скачал: 5.89 ГБ
Ратио: 361.729
Сообщения: 154618
Стаж: 1 год 3 месяца
СообщениеДобавлено: 07 янв 2018, 21:12


Новый Ералаш (2018.01.07) HDTV [H.264/1080i-LQ]

Телекомпания: Первый канал HD
Жанр: Юмор

Режиссер: Борис Грачевский

Описание:
Детский юмористический киножурнал об историях, которые случаются с ребятами в школе и дома,во дворах и на улице. Поучительные кинозарисовки прививают молодому поколению любовь и уважение к сверстникам и окружающим.

Релиз от: olegka7373
Продолжительность: ~ 00:09:54
Качество видео: HDTV
Субтитры: Отсутствуют

Видео: AVC, 1920x1080 (16:9), 25.000 fps, 5 711 Kbps (0.110 bit/pixel)
Аудио 1: AC-3, 48.0 KHz, 6 ch, 384 Kbps, CBR
Аудио 2: MP2, 48.0 KHz, 2 ch, 192 Kbps, CBR
Код: выделить все Общее
Идентификатор                            : 1 (0x1)
Полное имя                               : D:\[1]\Ералаш\Ералаш (2018.01.07)_1080.ts
Формат                                   : MPEG-TS
Размер файла                             : 469 Мбайт
Продолжительность                        : 9 м. 54 с.
Режим общего битрейта                    : Переменный
Общий поток                              : 6620 Кбит/сек

Видео
Идентификатор                            : 2931 (0xB73)
Идентификатор меню                       : 1079 (0x437)
Формат                                   : AVC
Формат/Информация                        : Advanced Video Codec
Профиль формата                          : [email protected]
Параметр CABAC формата                   : Да
Параметр ReFrames формата                : 4 кадра
Идентификатор кодека                     : 27
Продолжительность                        : 9 м. 54 с.
Битрейт                                  : 5711 Кбит/сек
Ширина                                   : 1920 пикселей
Высота                                   : 1080 пикселей
Соотношение сторон                       : 16:9
Частота кадров                           : 25,000 кадров/сек
Цветовое пространство                    : YUV
Субдискретизация насыщенности            : 4:2:0
Битовая глубина                          : 8 бит
Тип развёртки                            : MBAFF
Порядок развёртки                        : Верхнее поле первое
Бит/(Пиксели*Кадры)                      : 0.110
Размер потока                            : 405 Мбайт (86%)

Аудио #1
Идентификатор                            : 211 (0xD3)
Идентификатор меню                       : 1079 (0x437)
Формат                                   : AC-3
Формат/Информация                        : Audio Coding 3
Расширение режима                        : CM (complete main)
Параметр Endianness формата              : Big
Идентификатор кодека                     : 129
Продолжительность                        : 9 м. 54 с.
Вид битрейта                             : Постоянный
Битрейт                                  : 384 Кбит/сек
Каналы                                   : 6 каналов
Расположение каналов                     : Front: L C R, Side: L R, LFE
Частота                                  : 48,0 КГц
Битовая глубина                          : 16 бит
Метод сжатия                             : С потерями
Задержка видео                           : -40 мс.
Размер потока                            : 27,2 Мбайт (6%)
Язык                                     : Russian

Аудио #2
Идентификатор                            : 212 (0xD4)
Идентификатор меню                       : 1079 (0x437)
Формат                                   : MPEG Audio
Версия формата                           : Version 1
Профиль формата                          : Layer 2
Идентификатор кодека                     : 3
Продолжительность                        : 9 м. 54 с.
Вид битрейта                             : Постоянный
Битрейт                                  : 192 Кбит/сек
Каналы                                   : 2 канала
Частота                                  : 48,0 КГц
Метод сжатия                             : С потерями
Задержка видео                           : -40 мс.
Размер потока                            : 13,6 Мбайт (3%)
Язык                                     : Russian
 
1.Духовная пища 2.Нечисть 3.Новый метод

Скриншоты:



Время раздачи: 24/7. До первых 5 скачавших.
   
Торрент: Зарегистрирован [08 янв 2018, 08:12] Отечественный юмор (DVD, HD) Скачать торрент Магнет ссылка
Скачать торрент
[ Размер 19.11 КБ / Просмотров 26 ]
Статус:
Проверен
 
.torrent скачан: 1 раз
Размер: 469.21 МБ (492 006 152 байт)
   Стать Автором раздачи
 
 
Цитата

Вернуться в Отечественный юмор (DVD, HD)

Кто сейчас на конференции

Сейчас эту тему просматривают: нет зарегистрированных пользователей и гости: 1