Большой переполох в маленьком Китае / Big Trouble In Little China (1986) BDRip [H.264/1080p]

 Статистика раздачи 
Размер: 10.75 ГБ   |  Зарегистрирован: 08 янв 2018, 03:48   |   .torrent скачан: 0 раз
Сидеров: 0  [ 0 байт/сек ]     Личеров: 0  [ 0 байт/сек ]  
  
Аватара пользователя
Автор темы
Раздал: 0 байт
Скачал: 0 байт
Ратио: Inf.
Сообщения: 19497
Стаж: 6 лет 11 месяцев 9 дней

Большой переполох в маленьком Китае / Big Trouble In Little China (1986) BDRip

Производство: США
Жанр: Фэнтези, Боевик, Приключения

Режиссер: Джон Карпентер
Актеры: Курт Рассел, Ким Кэтролл, Деннис Дун, Джеймс Хонг, Виктор Вонг, Кейт Бертон, Дональд Ли, Картер Вон, Питер Квон, Джеймс Пакс, Suzee Pai, Чао Ли Чи, Джефф Имада, Раммел Мор, Крэйг ЭнДжи, Джун Киото Лу, Ноэль Той, Джерри Хардин, Джеймс Лью, Джим Лау, Кенни Эндосо

Описание:
Водителю грузовика приходится углубиться в недра китайского квартала Сан-Франциско после того, как некий могущественный китаец похитил девушку его друга только потому, что у нее зеленые глаза.



Возраст: 12+ (зрителям, достигшим 12 лет)
Рейтинг MPAA: PG-13 (детям до 13 лет просмотр нежелателен)

Релиз от: HD Club

Продолжительность: 01:39:47
Качество видео: BDRip
Перевод: Дублированный, Многоголосый закадровый, Двухголосый закадровый, Одноголосый закадровый
Язык субтитров: Русские, Русские (Комментарии Д.Карпентера и К.Рассела), Английские
Вид субтитров: Вшитые (отключаемые)

Видео: AVC/H.264, 1920x816, ~10,5 Mbps
Аудио 1: Русский DTS, 3/2 (L,C,R,l,r) + LFE ch, ~768.00 kbps avg | Дубляж, Blu-ray EUR
Аудио 2: Русский AC3, 3/2 (L,C,R,l,r) + LFE ch, ~448.00 kbps avg | Многоголосый закадровый, Киномания
Аудио 3: Русский AC3, 3/2 (L,C,R,l,r) + LFE ch, ~448.00 kbps avg | Двухголосый закадровый, ОРТ
Аудио 4: Русский DTS, 3/2 (L,C,R,l,r) + LFE ch, ~1536.00 kbps avg | Одноголосый закадровый, A.Михалёв
Аудио 5: Английский DTS, 3/2 (L,C,R,l,r) + LFE ch, ~1536.00 kbps avg | Оригинал
Аудио 6: Английский AC3, 2/0 (L,R) ch, ~224.00 kbps avg | Комментарии Д.Карпентера и К.Рассела
Код: Выделить всё
General
Complete name                    : E:\Big.Trouble.in.Little.China.1986.1080p.mkv
Format                           : Matroska
File size                        : 10.8 GiB
Duration                         : 1h 39mn
Overall bit rate                 : 15.4 Mbps
Movie name                       : Big Trouble in Little China [1986] - Release for HDCLUB
Encoded date                     : UTC 2010-04-16 08:26:59
Writing application              : mkvmerge v3.3.0 ('Language') built on Mar 24 2010 14:59:24
Writing library                  : libebml v0.8.0 + libmatroska v0.9.0

Video
ID                               : 1
Format                           : AVC
Format/Info                      : Advanced Video Codec
Format profile                   : [url=http://nnm-club.name/mailto:[email protected]][email protected][/url]
Format settings, CABAC           : Yes
Format settings, ReFrames        : 4 frames
Muxing mode                      : Container [email protected]
Codec ID                         : V_MPEG4/ISO/AVC
Duration                         : 1h 39mn
Bit rate                         : 10.2 Mbps
Nominal bit rate                 : 10.5 Mbps
Width                            : 1 920 pixels
Height                           : 816 pixels
Display aspect ratio             : 2.35:1
Frame rate                       : 23.976 fps
Resolution                       : 8 bits
Colorimetry                      : 4:2:0
Scan type                        : Progressive
Bits/(Pixel*Frame)               : 0.272
Stream size                      : 7.12 GiB (66%)
Title                            : Release for HDCLUB
Writing library                  : x264 core 67 r1165M 6841c5e
Encoding settings                : cabac=1 / ref=4 / deblock=1:-3:-4 / analyse=0x3:0x133 / me=tesa / subme=9 / psy_rd=1.0:0.0 / mixed_ref=1 / me_range=24 / chroma_me=1 / trellis=2 / 8x8dct=1 / cqm=2 / deadzone=21,11 / chroma_qp_offset=-4 / threads=6 / nr=0 / decimate=0 / mbaff=0 / bframes=3 / b_pyramid=1 / b_adapt=2 / b_bias=0 / direct=3 / wpredb=1 / keyint=24 / keyint_min=2 / scenecut=40 / rc=2pass / bitrate=10510 / ratetol=1.0 / qcomp=0.50 / qpmin=10 / qpmax=51 / qpstep=4 / cplxblur=20.0 / qblur=0.5 / vbv_maxrate=42000 / vbv_bufsize=42000 / ip_ratio=1.30 / pb_ratio=1.30 / aq=1:0.80
Language                         : English

Audio #1
ID                               : 2
Format                           : DTS
Format/Info                      : Digital Theater Systems
Codec ID                         : A_DTS
Duration                         : 1h 39mn
Bit rate mode                    : Constant
Bit rate                         : 755 Kbps
Channel(s)                       : 6 channels
Channel positions                : Front: L C R, Surround: L R, LFE
Sampling rate                    : 48.0 KHz
Resolution                       : 24 bits
Stream size                      : 539 MiB (5%)
Title                            : DTS 5.1 768 Kbps [Дубляж, BluRay EUR]
Language                         : Russian

Audio #2
ID                               : 3
Format                           : AC-3
Format/Info                      : Audio Coding 3
Codec ID                         : A_AC3
Duration                         : 1h 39mn
Bit rate mode                    : Constant
Bit rate                         : 448 Kbps
Channel(s)                       : 6 channels
Channel positions                : Front: L C R, Surround: L R, LFE
Sampling rate                    : 48.0 KHz
Stream size                      : 320 MiB (3%)
Title                            : AC3 5.1 448 Kbps [Многоголосый, «Киномания»]
Language                         : Russian

Audio #3
ID                               : 4
Format                           : AC-3
Format/Info                      : Audio Coding 3
Codec ID                         : A_AC3
Duration                         : 1h 39mn
Bit rate mode                    : Constant
Bit rate                         : 448 Kbps
Channel(s)                       : 6 channels
Channel positions                : Front: L C R, Surround: L R, LFE
Sampling rate                    : 48.0 KHz
Stream size                      : 320 MiB (3%)
Title                            : AC3 5.1 448 Kbps [Двухголосый, «ОРТ»]
Language                         : Russian

Audio #4
ID                               : 5
Format                           : DTS
Format/Info                      : Digital Theater Systems
Codec ID                         : A_DTS
Duration                         : 1h 39mn
Bit rate mode                    : Constant
Bit rate                         : 1 510 Kbps
Channel(s)                       : 6 channels
Channel positions                : Front: L C R, Surround: L R, LFE
Sampling rate                    : 48.0 KHz
Resolution                       : 24 bits
Stream size                      : 1.05 GiB (10%)
Title                            : DTS 5.1 1536 Kbps [Одноголосый, А.Михалёв]
Language                         : Russian

Audio #5
ID                               : 6
Format                           : DTS
Format/Info                      : Digital Theater Systems
Codec ID                         : A_DTS
Duration                         : 1h 39mn
Bit rate mode                    : Constant
Bit rate                         : 1 510 Kbps
Channel(s)                       : 6 channels
Channel positions                : Front: L C R, Surround: L R, LFE
Sampling rate                    : 48.0 KHz
Resolution                       : 24 bits
Stream size                      : 1.05 GiB (10%)
Title                            : DTS 5.1 1536 Kbps [Оригинал]
Language                         : English

Audio #6
ID                               : 7
Format                           : AC-3
Format/Info                      : Audio Coding 3
Codec ID                         : A_AC3
Duration                         : 1h 39mn
Bit rate mode                    : Constant
Bit rate                         : 224 Kbps
Channel(s)                       : 2 channels
Channel positions                : L R
Sampling rate                    : 48.0 KHz
Stream size                      : 160 MiB (1%)
Title                            : AC3 2.0 224 Kbps [Комментарии Д.Карпентера и К.Рассела]
Language                         : English

Text #1
ID                               : 8
Format                           : UTF-8
Codec ID                         : S_TEXT/UTF8
Codec ID/Info                    : UTF-8 Plain Text
Language                         : Russian

Text #2
ID                               : 9
Format                           : UTF-8
Codec ID                         : S_TEXT/UTF8
Codec ID/Info                    : UTF-8 Plain Text
Title                            : Комментарии Д.Карпентера и К.Рассела
Language                         : Russian

Text #3
ID                               : 10
Format                           : UTF-8
Codec ID                         : S_TEXT/UTF8
Codec ID/Info                    : UTF-8 Plain Text
Language                         : English

Скриншоты:




Время раздачи: 24/7 (круглосуточно) (до появления первых 3-5 скачавших)
   
Торрент: Зарегистрирован [08 янв 2018, 03:48] Скачать торрент Магнет ссылка
Скачать торрент
[ Размер 27.86 КБ / Просмотров 0 ]
Статус:
Проверен
 
.torrent скачан: 0 раз
Размер: 10.75 ГБ (11 543 305 197 байт)
   
 
 
Цитата

Вернуться в Классика зарубежного кино (DVD, DVDRip, HD Video)

Кто сейчас на конференции

Сейчас эту тему просматривают: нет зарегистрированных пользователей и гости: 1