Лучшие песни-2017 (2017.12.31) HDTV [H.264/1080i]

 Статистика раздачи 
Размер: 8.06 ГБ   |  Зарегистрирован: 08 янв 2018, 01:32   |   .torrent скачан: 0 раз
Сидеров: 0  [ 0 байт/сек ]     Личеров: 42  [ 0 байт/сек ]  
  
Аватара пользователя
 
Раздал: 0 байт
Скачал: 0 байт
Ратио: Inf.
Сообщения: 109706
Стаж: 7 лет 6 месяцев 3 дня
СообщениеДобавлено: 31 дек 2017, 20:37


Лучшие песни-2017 (2017.12.31) HDTV [H.264/1080i]

Телекомпания: Россия HD
Жанр: Концерт

Описание:
В последний день уходящего года самые талантливые певцы и артисты, которые в течение всего года радовали нас своими песнями и выступлениями, представляют "Лучшие песни"! В гала-концерте принимают участие: Валерий Меладзе, Валерия, Николай Басков, Елена Ваенга, Ани Лорак, победитель конкурса "Новая волна" Пьер Ноэль, Глюкоза, Анжелика Варум, Лолита, Надежда Кадышева, Нюша, Тамара Гвердцители, Лариса Долина, Кристина Орбакайте, Олег Газманов, Ирина Аллегрова и многие другие.

Продолжительность: 01:32:15
Качество видео: HDTV
Субтитры: Отсутствуют

Видео: AVC, 1920x1080 (16:9), 25.000 fps, 11.7 Mbps (0.226 bit/pixel)
Аудио: MP2, 48.0 KHz, 2 ch, 192 Kbps, CBR
Код: выделить все Общее
Идентификатор                            : 1 (0x1)
Полное имя                               : D:\[1]\Лучшие песни\Лучшие песни-2017 (2017.12.31)_1080.ts
Формат                                   : MPEG-TS
Размер файла                             : 8,06 Гбайт
Продолжительность                        : 1 ч. 32 м.
Режим общего битрейта                    : Переменный
Общий поток                              : 12,5 Мбит/сек

Видео
Идентификатор                            : 2292 (0x8F4)
Идентификатор меню                       : 2291 (0x8F3)
Формат                                   : AVC
Формат/Информация                        : Advanced Video Codec
Профиль формата                          : [email protected]
Параметр CABAC формата                   : Да
Параметр ReFrames формата                : 4 кадра
Идентификатор кодека                     : 27
Продолжительность                        : 1 ч. 32 м.
Битрейт                                  : 11,7 Мбит/сек
Ширина                                   : 1920 пикселей
Высота                                   : 1080 пикселей
Соотношение сторон                       : 16:9
Частота кадров                           : 25,000 кадров/сек
Стандарт вещания                         : Component
Цветовое пространство                    : YUV
Субдискретизация насыщенности            : 4:2:0
Битовая глубина                          : 8 бит
Тип развёртки                            : Чересстрочная
Порядок развёртки                        : Верхнее поле первое
Бит/(Пиксели*Кадры)                      : 0.226
Размер потока                            : 7,54 Гбайт (94%)
Цветовой диапазон                        : Limited
Основные цвета                           : BT.709
Характеристики трансфера                 : BT.709
Коэффициенты матрицы                     : BT.709

Аудио
Идентификатор                            : 2295 (0x8F7)
Идентификатор меню                       : 2291 (0x8F3)
Формат                                   : MPEG Audio
Версия формата                           : Version 1
Профиль формата                          : Layer 2
Идентификатор кодека                     : 3
Продолжительность                        : 1 ч. 32 м.
Вид битрейта                             : Постоянный
Битрейт                                  : 192 Кбит/сек
Каналы                                   : 2 канала
Частота                                  : 48,0 КГц
Метод сжатия                             : С потерями
Размер потока                            : 127 Мбайт (2%)
Язык                                     : Russian
 

Скриншоты:



Время раздачи: 24/7. До первых 5 скачавших.
   
Торрент: Зарегистрирован [08 янв 2018, 01:32] Скачать торрент Магнет ссылка
Скачать торрент
[ Размер 41.1 КБ / Просмотров 28 ]
Статус:
Проверен
 
.torrent скачан: 0 раз
Размер: 8.06 ГБ (8 655 554 216 байт)
   Стать Автором раздачи
 
 
Цитата

Вернуться в Concert Recording

Кто сейчас на конференции

Сейчас эту тему просматривают: нет зарегистрированных пользователей и гости: 1