Главный новогодний концерт (2017.12.31) HDTV [H.264/1080i]

 Статистика раздачи 
Размер: 11.03 ГБ   |  Зарегистрирован: 08 янв 2018, 01:32   |   .torrent скачан: 0 раз
Сидеров: 5  [ 0 байт/сек ]     Личеров: 1  [ 0 байт/сек ]  
  
Аватара пользователя
 
Раздал: 0 байт
Скачал: 0 байт
Ратио: Inf.
Сообщения: 114823
Стаж: 7 лет 10 месяцев 7 дней

Главный новогодний концерт (2017.12.31) HDTV [H.264/1080i]

Телекомпания: Первый канал HD
Жанр: Концерт

Ведущие: Валдис Пельш, Анастасия Макеева, Дмитрий Хрусталёв и Яна Кошкина

Описание:
Все звезды на одной сцене! Большинство звезд специально объединятся в дуэты и трио, чтобы хиты в их исполнении зазвучали по-новому.

Актеры: Ольга Кормухина, Интарс Бусулис, Валерия, Юрий Антонов, Варвара, "Бурановские бабушки", "Иванушки Int.", "Фабрика", Олег Газманов, Александр Буйнов, Егор Крид, Полина Гагарина, DJ Smash, "А-студио", Александр Панайотов, Светлана Лобода, Вахтанг, Владимир Пресняков, Александр Иванов, Александр Ревва, Глюкоза, Нюша, Ани Лорак, МОТ, Елена Ваенга, Roberto Kel Torres, Сосо Павлиашвили, Леонид Агутин, "Ума Турман", Лариса Долина, Тамара Гвердцители? Глеб Матвейчук, Диана Арбенина, Сергей Лазарев

Продолжительность: ~ 02:04:58
Качество видео: HDTV
Субтитры: Отсутствуют

Видео: AVC, 1920x1080 (16:9), 25.000 fps, 11.8 Mbps (0.228 bit/pixel)
Аудио: MP2, 48.0 KHz, 2 ch, 192 Kbps, CBR
Код: выделить все Общее
Идентификатор                            : 1 (0x1)
Полное имя                               : D:\[1]\Главный новогодний концерт\Главный новогодний концерт (2017.12.31)_1080.ts
Формат                                   : MPEG-TS
Размер файла                             : 11,0 Гбайт
Продолжительность                        : 2 ч. 4 м.
Режим общего битрейта                    : Переменный
Общий поток                              : 12,6 Мбит/сек

Видео
Идентификатор                            : 8000 (0x1F40)
Идентификатор меню                       : 20105 (0x4E89)
Формат                                   : AVC
Формат/Информация                        : Advanced Video Codec
Профиль формата                          : High@L4
Параметр CABAC формата                   : Да
Параметр ReFrames формата                : 4 кадра
Идентификатор кодека                     : 27
Продолжительность                        : 2 ч. 4 м.
Битрейт                                  : 11,8 Мбит/сек
Ширина                                   : 1920 пикселей
Высота                                   : 1080 пикселей
Соотношение сторон                       : 16:9
Частота кадров                           : 25,000 кадров/сек
Стандарт вещания                         : Component
Цветовое пространство                    : YUV
Субдискретизация насыщенности            : 4:2:0
Битовая глубина                          : 8 бит
Тип развёртки                            : Чересстрочная
Порядок развёртки                        : Верхнее поле первое
Бит/(Пиксели*Кадры)                      : 0.228
Размер потока                            : 10,3 Гбайт (94%)
Цветовой диапазон                        : Limited
Основные цвета                           : BT.709
Характеристики трансфера                 : BT.709
Коэффициенты матрицы                     : BT.709

Аудио
Идентификатор                            : 8001 (0x1F41)
Идентификатор меню                       : 20105 (0x4E89)
Формат                                   : MPEG Audio
Версия формата                           : Version 1
Профиль формата                          : Layer 2
Идентификатор кодека                     : 3
Продолжительность                        : 2 ч. 4 м.
Вид битрейта                             : Постоянный
Битрейт                                  : 192 Кбит/сек
Каналы                                   : 2 канала
Частота                                  : 48,0 КГц
Метод сжатия                             : С потерями
Задержка видео                           : -120 мс.
Размер потока                            : 172 Мбайт (2%)
Язык                                     : Russian
 

Скриншоты:



Время раздачи: 24/7. До первых 5 скачавших.
Не забывайте говорить Спасибо. Не уходите с раздачи!   
Торрент: Зарегистрирован [08 янв 2018, 01:32] Для скачивания .torrent
необходима регистрация
Или скачать с помощью
MediaGet
Статус:
Проверен
 
.torrent скачан: 0 раз
Хэш: 8cf1e08e42946d2a9e989a94f9717b8e1585ccb6
Размер: 11.03 ГБ (11 841 379 468 байт)
   Стать Автором раздачи
   
Цитата

Вернуться в Concert Recording

Кто сейчас на конференции

Сейчас эту тему просматривают: нет зарегистрированных пользователей и гости: 1