Jeff Lynne's ELO - Wembley Or Bust (2017) Blu-ray [H.264/1080p]

 Статистика раздачи 
Размер: 19.66 ГБ   |  Зарегистрирован: 08 янв 2018, 01:30   |   .torrent скачан: 8 раз
Сидеров: 46  [ 0 байт/сек ]     Личеров: 13  [ 0 байт/сек ]  
  
Аватара пользователя
 
Раздал: 0 байт
Скачал: 0 байт
Ратио: Inf.
Сообщения: 114824
Стаж: 7 лет 9 месяцев 26 дней
СообщениеДобавлено: 24 ноя 2017, 09:48


Jeff Lynne's ELO - Wembley Or Bust (2017) Blu-ray [H.264/1080p]

Жанр: Progressive Rock, Art Rock

Описание:
Материал был записан во время концерта Джеффа Линна и ELO на стадионе Уэмбли в Лондоне 24 июня. Видео и аудиозапись концерта выпущена во всех возможных форматах: на CD, DVD, Blu-Ray и виниле и стала доступна покупателям 17 ноября.
Режиссером фильма-концерта выступил Пол Дагдейл. Как говорится в пресс-релизе, концерт на Уэмбли - «одно из величайших рок-н-ролльных представлений» всех времен, наполненное всевозможными спецэффектами, которыми знаменит Джефф Линн, также классическими хитами ELO, таких как "Evil Woman", "Don’t Bring Me Down", "Mr Blue Sky" и многих других.
Следует отметить, что трек-лист концерта включает только одну новую композицию: номер "When I was a Boy" вышел на последнем на сегодня альбоме Electric Light Orchestra, "Alone In In The Universe" (2015).
В трейлере Джефф Линн так говорит о прошедшем концерте: «Это лучшее, что я когда-либо делал в музыке. Это превзошло все мои ожидания».

Продолжительность: 01:58:22
Качество видео: Blu-ray

Видео: AVC/H.264, 1920x1080, ~19993 Kbps
Аудио: LPCM, 2 ch, 2304 Kbps, 48 KHz, 24-bit

Треклист:

01. Standin' in the Rain
02. Evil Woman
03. All Over the World
04. Showdown
05. Livin' Thing
06. Scene 1
07. Do Ya
08. When I Was a Boy
09. Handle with Care
10. Scene 2
11. Last Train to London
12. Xanadu
13. Rockaria!
14. Band Introductions
15. Can't Get It Out of My Head
16. 10538 Overture
17. Scene 3
18. Twilight
19. Ma-Ma-Ma Belle
20. Shine a Little Love
21. Wild West Hero
22. Scene 4
23. Sweet Talkin' Woman
24. Telephone Line
25. Turn to Stone
26. Don't Bring Me Down
27. Mr. Blue Sky
28. Scene 5
29. Roll Over Beethoven
30. Credits
Код: Выделить всё
Disc Title:     Jeff Lynne's ELO - Wembley Or Bust (SD Blu Ray) 2017
Disc Size:      21 108 990 678 bytes
Protection:     AACS
BD-Java:        No
BDInfo:         0.5.8

Notes:

BDINFO HOME:
  Cinema Squid
    [url=http://www.cinemasquid.com/blu-ray/tools/bdinfo]http://www.cinemasquid.com/blu-ray/tools/bdinfo[/url]

INCLUDES FORUMS REPORT FOR:
  AVS Forum Blu-ray Audio and Video Specifications Thread
    [url=http://www.avsforum.com/avs-vb/showthread.php?t=1155731]http://www.avsforum.com/avs-vb/showthread.php?t=1155731[/url]

WARNING: Report is incomplete because: Scan has not been run.

********************
PLAYLIST: 00020.MPLS
********************

<--- BEGIN FORUMS PASTE --->

           [b]Код:[/b] [url=http://nnm-club.name/#]выделить все[/url]
                                                                                                                Total   Video
Title                                                           Codec   Length  Movie Size      Disc Size       Bitrate Bitrate Main Audio Track                          Secondary Audio Track
-----                                                           ------  ------- --------------  --------------  ------- ------- ------------------                        ---------------------
00020.MPLS                                                      AVC     1:58:22 0               21 108 990 678  0,00    0,00    LPCM 2.0 2304Kbps (48kHz/24-bit)
           [b]Код:[/b] [url=http://nnm-club.name/#]выделить все[/url]

DISC INFO:

Disc Title:     Jeff Lynne's ELO - Wembley Or Bust (SD Blu Ray) 2017
Disc Size:      21 108 990 678 bytes
Protection:     AACS
BD-Java:        No
BDInfo:         0.5.8

PLAYLIST REPORT:

Name:                   00020.MPLS
Length:                 1:58:22.345 (h:m:s.ms)
Size:                   0 bytes
Total Bitrate:          0,00 Mbps

VIDEO:

Codec                   Bitrate             Description
-----                   -------             -----------
MPEG-4 AVC Video        0 kbps              1080p / 23,976 fps / 16:9 / High Profile 4.1

AUDIO:

Codec                           Language        Bitrate         Description
-----                           --------        -------         -----------
LPCM Audio                      English         2304 kbps       2.0 / 48 kHz / 2304 kbps / 24-bit

FILES:

Name            Time In         Length          Size            Total Bitrate
----            -------         ------          ----            -------------
00006.M2TS      0:00:00.000     1:58:21.344     0               0
00000.M2TS      1:58:21.344     0:00:01.000     0               0

CHAPTERS:

Number          Time In         Length          Avg Video Rate  Max 1-Sec Rate  Max 1-Sec Time  Max 5-Sec Rate  Max 5-Sec Time  Max 10Sec Rate  Max 10Sec Time  Avg Frame Size  Max Frame Size  Max Frame Time
------          -------         ------          --------------  --------------  --------------  --------------  --------------  --------------  --------------  --------------  --------------  --------------
1               0:00:00.000     0:04:30.687     0 kbps          0 kbps          00:00:00.000    0 kbps          00:00:00.000    0 kbps          00:00:00.000    0 bytes         0 bytes         00:00:00.000
2               0:04:30.687     0:04:36.776     0 kbps          0 kbps          00:00:00.000    0 kbps          00:00:00.000    0 kbps          00:00:00.000    0 bytes         0 bytes         00:00:00.000
3               0:09:07.463     0:04:07.121     0 kbps          0 kbps          00:00:00.000    0 kbps          00:00:00.000    0 kbps          00:00:00.000    0 bytes         0 bytes         00:00:00.000
4               0:13:14.585     0:04:22.971     0 kbps          0 kbps          00:00:00.000    0 kbps          00:00:00.000    0 kbps          00:00:00.000    0 bytes         0 bytes         00:00:00.000
5               0:17:37.556     0:04:29.602     0 kbps          0 kbps          00:00:00.000    0 kbps          00:00:00.000    0 kbps          00:00:00.000    0 bytes         0 bytes         00:00:00.000
6               0:22:07.159     0:02:42.495     0 kbps          0 kbps          00:00:00.000    0 kbps          00:00:00.000    0 kbps          00:00:00.000    0 bytes         0 bytes         00:00:00.000
7               0:24:49.654     0:04:11.960     0 kbps          0 kbps          00:00:00.000    0 kbps          00:00:00.000    0 kbps          00:00:00.000    0 bytes         0 bytes         00:00:00.000
8               0:29:01.614     0:03:33.046     0 kbps          0 kbps          00:00:00.000    0 kbps          00:00:00.000    0 kbps          00:00:00.000    0 bytes         0 bytes         00:00:00.000
9               0:32:34.661     0:03:37.091     0 kbps          0 kbps          00:00:00.000    0 kbps          00:00:00.000    0 kbps          00:00:00.000    0 bytes         0 bytes         00:00:00.000
10              0:36:11.752     0:03:24.704     0 kbps          0 kbps          00:00:00.000    0 kbps          00:00:00.000    0 kbps          00:00:00.000    0 bytes         0 bytes         00:00:00.000
11              0:39:36.457     0:04:16.965     0 kbps          0 kbps          00:00:00.000    0 kbps          00:00:00.000    0 kbps          00:00:00.000    0 bytes         0 bytes         00:00:00.000
12              0:43:53.422     0:03:48.436     0 kbps          0 kbps          00:00:00.000    0 kbps          00:00:00.000    0 kbps          00:00:00.000    0 bytes         0 bytes         00:00:00.000
13              0:47:41.859     0:03:28.708     0 kbps          0 kbps          00:00:00.000    0 kbps          00:00:00.000    0 kbps          00:00:00.000    0 bytes         0 bytes         00:00:00.000
14              0:51:10.567     0:02:05.208     0 kbps          0 kbps          00:00:00.000    0 kbps          00:00:00.000    0 kbps          00:00:00.000    0 bytes         0 bytes         00:00:00.000
15              0:53:15.775     0:04:47.495     0 kbps          0 kbps          00:00:00.000    0 kbps          00:00:00.000    0 kbps          00:00:00.000    0 bytes         0 bytes         00:00:00.000
16              0:58:03.271     0:04:47.495     0 kbps          0 kbps          00:00:00.000    0 kbps          00:00:00.000    0 kbps          00:00:00.000    0 bytes         0 bytes         00:00:00.000
17              1:02:50.767     0:03:12.275     0 kbps          0 kbps          00:00:00.000    0 kbps          00:00:00.000    0 kbps          00:00:00.000    0 bytes         0 bytes         00:00:00.000
18              1:06:03.042     0:04:35.191     0 kbps          0 kbps          00:00:00.000    0 kbps          00:00:00.000    0 kbps          00:00:00.000    0 bytes         0 bytes         00:00:00.000
19              1:10:38.234     0:04:13.211     0 kbps          0 kbps          00:00:00.000    0 kbps          00:00:00.000    0 kbps          00:00:00.000    0 bytes         0 bytes         00:00:00.000
20              1:14:51.445     0:04:05.745     0 kbps          0 kbps          00:00:00.000    0 kbps          00:00:00.000    0 kbps          00:00:00.000    0 bytes         0 bytes         00:00:00.000
21              1:18:57.190     0:04:14.212     0 kbps          0 kbps          00:00:00.000    0 kbps          00:00:00.000    0 kbps          00:00:00.000    0 bytes         0 bytes         00:00:00.000
22              1:23:11.403     0:00:52.260     0 kbps          0 kbps          00:00:00.000    0 kbps          00:00:00.000    0 kbps          00:00:00.000    0 bytes         0 bytes         00:00:00.000
23              1:24:03.663     0:03:46.851     0 kbps          0 kbps          00:00:00.000    0 kbps          00:00:00.000    0 kbps          00:00:00.000    0 bytes         0 bytes         00:00:00.000
24              1:27:50.515     0:04:59.716     0 kbps          0 kbps          00:00:00.000    0 kbps          00:00:00.000    0 kbps          00:00:00.000    0 bytes         0 bytes         00:00:00.000
25              1:32:50.231     0:04:02.450     0 kbps          0 kbps          00:00:00.000    0 kbps          00:00:00.000    0 kbps          00:00:00.000    0 bytes         0 bytes         00:00:00.000
26              1:36:52.681     0:04:22.387     0 kbps          0 kbps          00:00:00.000    0 kbps          00:00:00.000    0 kbps          00:00:00.000    0 bytes         0 bytes         00:00:00.000
27              1:41:15.068     0:05:15.690     0 kbps          0 kbps          00:00:00.000    0 kbps          00:00:00.000    0 kbps          00:00:00.000    0 bytes         0 bytes         00:00:00.000
28              1:46:30.759     0:00:55.930     0 kbps          0 kbps          00:00:00.000    0 kbps          00:00:00.000    0 kbps          00:00:00.000    0 bytes         0 bytes         00:00:00.000
29              1:47:26.690     0:06:45.655     0 kbps          0 kbps          00:00:00.000    0 kbps          00:00:00.000    0 kbps          00:00:00.000    0 bytes         0 bytes         00:00:00.000
30              1:54:12.345     0:04:08.998     0 kbps          0 kbps          00:00:00.000    0 kbps          00:00:00.000    0 kbps          00:00:00.000    0 bytes         0 bytes         00:00:00.000
31              1:58:21.344     0:00:01.001     0 kbps          0 kbps          00:00:00.000    0 kbps          00:00:00.000    0 kbps          00:00:00.000    0 bytes         0 bytes         00:00:00.000

STREAM DIAGNOSTICS:

File            PID             Type            Codec           Language                Seconds                 Bitrate                 Bytes           Packets
----            ---             ----            -----           --------                --------------          --------------          -------------   -----
00006.M2TS      4113 (0x1011)   0x1B            AVC                                     0                       0                       0               0
00006.M2TS      4352 (0x1100)   0x80            LPCM            eng (English)           0                       0                       0               0
00000.M2TS      4113 (0x1011)   0x1B            AVC                                     0                       0                       0               0
<---- END FORUMS PASTE ---->

QUICK SUMMARY:

Disc Title: Jeff Lynne's ELO - Wembley Or Bust (SD Blu Ray) 2017
Disc Size: 21 108 990 678 bytes
Protection: AACS
BD-Java: No
Playlist: 00020.MPLS
Size: 0 bytes
Length: 1:58:22.345
Total Bitrate: 0,00 Mbps
Video: MPEG-4 AVC Video / 0 kbps / 1080p / 23,976 fps / 16:9 / High Profile 4.1
Audio: English / LPCM Audio / 2.0 / 48 kHz / 2304 kbps / 24-bit

********************
PLAYLIST: 00021.MPLS
********************

<--- BEGIN FORUMS PASTE --->

           [b]Код:[/b] [url=http://nnm-club.name/#]выделить все[/url]
                                                                                                                Total   Video
Title                                                           Codec   Length  Movie Size      Disc Size       Bitrate Bitrate Main Audio Track                          Secondary Audio Track
-----                                                           ------  ------- --------------  --------------  ------- ------- ------------------                        ---------------------
00021.MPLS                                                      AVC     0:00:35 0               21 108 990 678  0,00    0,00
           [b]Код:[/b] [url=http://nnm-club.name/#]выделить все[/url]

DISC INFO:

Disc Title:     Jeff Lynne's ELO - Wembley Or Bust (SD Blu Ray) 2017
Disc Size:      21 108 990 678 bytes
Protection:     AACS
BD-Java:        No
BDInfo:         0.5.8

PLAYLIST REPORT:

Name:                   00021.MPLS
Length:                 0:00:35.034 (h:m:s.ms)
Size:                   0 bytes
Total Bitrate:          0,00 Mbps

VIDEO:

Codec                   Bitrate             Description
-----                   -------             -----------
MPEG-4 AVC Video        0 kbps              1080p / 23,976 fps / 16:9 / High Profile 4.1

FILES:

Name            Time In         Length          Size            Total Bitrate
----            -------         ------          ----            -------------
00002.M2TS      0:00:00.000     0:00:34.033     0               0
00000.M2TS      0:00:34.033     0:00:01.000     0               0

CHAPTERS:

Number          Time In         Length          Avg Video Rate  Max 1-Sec Rate  Max 1-Sec Time  Max 5-Sec Rate  Max 5-Sec Time  Max 10Sec Rate  Max 10Sec Time  Avg Frame Size  Max Frame Size  Max Frame Time
------          -------         ------          --------------  --------------  --------------  --------------  --------------  --------------  --------------  --------------  --------------  --------------
1               0:00:00.000     0:00:35.034     0 kbps          0 kbps          00:00:00.000    0 kbps          00:00:00.000    0 kbps          00:00:00.000    0 bytes         0 bytes         00:00:00.000

STREAM DIAGNOSTICS:

File            PID             Type            Codec           Language                Seconds                 Bitrate                 Bytes           Packets
----            ---             ----            -----           --------                --------------          --------------          -------------   -----
00002.M2TS      4113 (0x1011)   0x1B            AVC                                     0                       0                       0               0
00000.M2TS      4113 (0x1011)   0x1B            AVC                                     0                       0                       0               0
<---- END FORUMS PASTE ---->

QUICK SUMMARY:

Disc Title: Jeff Lynne's ELO - Wembley Or Bust (SD Blu Ray) 2017
Disc Size: 21 108 990 678 bytes
Protection: AACS
BD-Java: No
Playlist: 00021.MPLS
Size: 0 bytes
Length: 0:00:35.034
Total Bitrate: 0,00 Mbps
Video: MPEG-4 AVC Video / 0 kbps / 1080p / 23,976 fps / 16:9 / High Profile 4.1

Скриншоты:



Время раздачи: Круглосуточно (до появления первых 3-5 скачавших)
Не забывайте говорить Спасибо. Не уходите с раздачи!   
Торрент: Зарегистрирован [08 янв 2018, 01:30] Для скачивания .torrent
необходима регистрация
Или скачать с помощью
MediaGet
Статус:
Проверен
 
.torrent скачан: 8 раз
Хэш: 0570ef281d305e63bb51403523573ecceedaaee8
Размер: 19.66 ГБ (21 108 990 678 байт)
   Стать Автором раздачи
   
Цитата
  • Похожие торренты
    Ответы
    Просмотры
    Последнее сообщение

Вернуться в Concert Recording

Кто сейчас на конференции

Сейчас эту тему просматривают: нет зарегистрированных пользователей и гости: 1