Суперсерия 1989: ЦСКА - Калгари Флеймз / CSKA - Calgary Flames [20.09.1989, хоккей, VHSRip]

Суперсерии: клубы и сборные; тов. матчи и турниры...
 Статистика раздачи 
Размер: 1.03 ГБ   |  Зарегистрирован: 27 фев 2018, 18:08   |   .torrent скачан: 0 раз
Сидеров: 0  [ 0 байт/сек ]     Личеров: 3  [ 0 байт/сек ]  
  
Аватара пользователя
 
Раздал: 0 байт
Скачал: 0 байт
Ратио: Inf.
Сообщения: 184681
Стаж: 7 лет 9 месяцев 26 дней
Откуда: Rossiya

Суперсерия 1989:
ЦСКА - Калгари Флеймз;
20 сентября 1989 г., Лужники
Год выпуска: 1989
Вид спорта: хоккей
Участники: Макаров, Быков, Касатонов, Буре, Флери, МакИннис и другие
Продолжительность: 01:57:52
Комментарий: Профессиональный (одноголосый)
Язык комментариев: английский
Описание: Весьма уникальный матч! Матч двух чемпионов: Калгари стал обладателем кубка Стенли 1989 г., ЦСКА стал чемпионом СССР 1989 г. (к слову сказать, это были последние чемпионства двух клубов!). Матч примечателен еще тем, что в составе Калгари играют первые ласточки в НХЛ Сергей Пряхин и Сергей Макаров, отыгравший до этого 11 сезонов за ЦСКА!
Качество: VHSRip
Формат: AVI
Видео кодек: DivX
Аудио кодек: MP3
Видео: DivX 720x576 29.97fps 1144 kbps
Аудио: MPEG Audio Layer 3 48000Hz stereo 96Kbps
General
Complete name : H:\_video\Sport\Хоккей\СССР\CSKA-Calgary.avi
Format : AVI
Format/Info : Audio Video Interleave
File size : 1.03 GiB
Duration : 1 h 57 min
Overall bit rate : 1 252 kb/s
Writing library : VirtualDub build 0/release
Video
ID : 0
Format : MPEG-4 Visual
Format profile : Simple@L1
Format settings, BVOP : No
Format settings, QPel : No
Format settings, GMC : No warppoints
Format settings, Matrix : Default (H.263)
Codec ID : DX50
Codec ID/Hint : DivX 5
Duration : 1 h 57 min
Bit rate : 1 144 kb/s
Width : 720 pixels
Height : 576 pixels
Display aspect ratio : 5:4
Frame rate : 29.970 FPS
Color space : YUV
Chroma subsampling : 4:2:0
Bit depth : 8 bits
Scan type : Progressive
Compression mode : Lossy
Bits/(Pixel*Frame) : 0.092
Stream size : 964 MiB (91%)
Writing library : FFmpeg0.4.8b4692
Audio
ID : 1
Format : MPEG Audio
Format version : Version 1
Format profile : Layer 3
Mode : Dual mono
Codec ID : 55
Codec ID/Hint : MP3
Duration : 1 h 57 min
Bit rate mode : Constant
Bit rate : 96.0 kb/s
Channel(s) : 2 channels
Sampling rate : 48.0 kHz
Compression mode : Lossy
Stream size : 80.9 MiB (8%)
Alignment : Split accross interleaves
Interleave, duration : 33 ms (1.00 video frame)
Interleave, preload duratio : 500 ms
ЦСКА 2:1 Калгари
Не забывайте говорить Спасибо. Не уходите с раздачи!   
Торрент: Зарегистрирован [27 фев 2018, 18:08] Для скачивания .torrent
необходима регистрация
Или скачать с помощью
MediaGet
Статус:
Проверен
 
.torrent скачан: 0 раз
Хэш: 29d8f9e46bf18ecbadba8d8520d0d085764830a5
Размер: 1.03 ГБ (1 106 509 824 байт)
   Стать Автором раздачи
   
Цитата

Вернуться в СССР - Канада

Кто сейчас на конференции

Сейчас эту тему просматривают: нет зарегистрированных пользователей и гости: 1