Суперсерия-2016 / Молодежные сборные ( U20 ) / Четвертый матч / Россия U20 - Канада-OHL / Матч ТВ HD [14.11.2016, Хоккей, HDTVRip/400p, AVI/XviD, RU/INT]

Суперсерии: клубы и сборные; тов. матчи и турниры...
 Статистика раздачи 
Размер: 1.8 ГБ   |  Зарегистрирован: 27 фев 2018, 18:01   |   .torrent скачан: 0 раз
Сидеров: 1  [ 0 байт/сек ]     Личеров: 2  [ 0 байт/сек ]  
  
Аватара пользователя
 
Раздал: 0 байт
Скачал: 0 байт
Ратио: Inf.
Сообщения: 182312
Стаж: 7 лет 7 месяцев 27 дней
Откуда: Rossiya

Суперсерия-2016. Молодежные сборные (U20). Четвертый матч
Россия U20 - Канада-OHL
Год выпуска: 14.11.2016
Вид спорта: Хоккей
Комментарий: Профессиональный
Язык комментариев: Русский (Неценко, Корнилов) / Интершум
Описание: Суперсерия-2016. Молодежные сборные (U20). Четвертый матч. Россия U20 - Канада-OHL.
Автор рипа: sanchez2011
Качество: HDTVRip
Формат: AVI
Видео кодек: XviD
Аудио кодек: MP3
Видео: MPEG4 Visual (H263) 704x400 (16:9) 25fps 1800kbps
Аудио: MP3 48000Hz stereo 128kbps
Код: Выделить всё
Россия U20
1 вр Россия Антон Красоткин
20 вр Россия Владислав Сухачёв
4 зщ Россия Артём Чмыхов
5 зщ Россия Камиль Фазылзянов
6 зщ Россия Егор Зайцев
23 зщ Россия Григорий Дронов
25 зщ Россия Александр Щемеров
27 зщ Россия Руслан Петрищев
28 зщ Россия Тимур Фаткуллин
29 зщ Россия Артём Волков
8 нп Россия Кирилл Ураков
9 нп Россия Данила Квартальнов
11 нп Россия Клим Костин
12 нп Россия Александр Волков
14 нп Россия Кирилл Беляев
15 нп Россия Павел Карнаухов
16 нп Россия Никита Ли
17 нп Россия Герман Рубцов
21 нп Россия Денис Алексеев
7 нп Россия Роман Крикуненко
13 нп Россия Никита Дыняк
22 нп Россия Данил Юртайкин
Главный тренер
Россия Валерий Николаевич Брагин
Канада OHL
40 вр Канада Майкл Макнивен
35 вр Канада Эван Кормье
2 зщ Канада Джейкоб Френд
14 зщ Канада Николас Хаг
21 зщ Канада Гарретт Макфэдден
52 зщ Канада Маркус Филипс
98 зщ Канада Виктор Мете
6 зщ Канада Джордан Сэмбрук
7 нп Канада Натан Бастиан
9 нп Канада Закари Сенишин
12 нп Канада Бретт Маккензи
17 нп Канада Тейлор Рэддиш
19 нп Канада Майкл Маклеод
23 нп Канада Адам Маскерин
24 нп Канада Дживани Смит
25 нп Канада Джордан Кайру
27 нп Канада Митчелл Стивенс
41 нп Канада Уилл Биттен
13 нп Канада Грэм Нотт
16 нп Канада Борис Катчук
Главный тренер
Канада Доминик Дюшарм
02:04:08
Россия U20 2 - 5 Канада-OHL
Код: Выделить всё
General
Complete name                            : W:\раздачи\ХОККЕЙ. Молодежные сборные. Суперсерия. Матч 4. Rutracker.org..avi
Format                                   : AVI
Format/Info                              : Audio Video Interleave
File size                                : 1.80 GiB
Duration                                 : 2h 4mn
Overall bit rate                         : 2 070 Kbps
Writing application                      : VirtualDubMod 1.5.10.2 (build 2540/release)
Writing library                          : VirtualDubMod build 2540/release
Video
ID                                       : 0
Format                                   : MPEG-4 Visual
Format profile                           : Advanced Simple@L5
Format settings, BVOP                    : 2
Format settings, QPel                    : No
Format settings, GMC                     : No warppoints
Format settings, Matrix                  : Default (H.263)
Codec ID                                 : XVID
Codec ID/Hint                            : XviD
Duration                                 : 2h 4mn
Bit rate                                 : 1 800 Kbps
Width                                    : 704 pixels
Height                                   : 400 pixels
Display aspect ratio                     : 16:9
Frame rate                               : 25.000 fps
Color space                              : YUV
Chroma subsampling                       : 4:2:0
Bit depth                                : 8 bits
Scan type                                : Progressive
Compression mode                         : Lossy
Bits/(Pixel*Frame)                       : 0.256
Stream size                              : 1.56 GiB (87%)
Writing library                          : XviD 67
Audio #1
ID                                       : 1
Format                                   : MPEG Audio
Format version                           : Version 1
Format profile                           : Layer 3
Mode                                     : Joint stereo
Mode extension                           : MS Stereo
Codec ID                                 : 55
Codec ID/Hint                            : MP3
Duration                                 : 2h 4mn
Bit rate mode                            : Constant
Bit rate                                 : 128 Kbps
Channel(s)                               : 2 channels
Sampling rate                            : 48.0 KHz
Compression mode                         : Lossy
Stream size                              : 114 MiB (6%)
Alignment                                : Aligned on interleaves
Interleave, duration                     : 40 ms (1.00 video frame)
Interleave, preload duration             : 504 ms
Writing library                          : LAME3.100Є
Audio #2
ID                                       : 2
Format                                   : MPEG Audio
Format version                           : Version 1
Format profile                           : Layer 3
Mode                                     : Joint stereo
Mode extension                           : MS Stereo
Codec ID                                 : 55
Codec ID/Hint                            : MP3
Duration                                 : 2h 4mn
Bit rate mode                            : Constant
Bit rate                                 : 128 Kbps
Channel(s)                               : 2 channels
Sampling rate                            : 48.0 KHz
Compression mode                         : Lossy
Stream size                              : 114 MiB (6%)
Alignment                                : Aligned on interleaves
Interleave, duration                     : 40 ms (1.00 video frame)
Interleave, preload duration             : 504 ms
Writing library                          : LAME3.100Є
Не забывайте говорить Спасибо. Не уходите с раздачи!   
Торрент: Зарегистрирован [27 фев 2018, 18:01] Для скачивания .torrent
необходима регистрация
Или скачать с помощью
MediaGet
Статус:
Проверен
 
.torrent скачан: 0 раз
Размер: 1.8 ГБ (1 927 581 696 байт)
   Стать Автором раздачи
   
Цитата
  • Похожие торренты
    Ответы
    Просмотры
    Последнее сообщение

Вернуться в СССР - Канада

Кто сейчас на конференции

Сейчас эту тему просматривают: нет зарегистрированных пользователей и гости: 1