Kenichi Sonoda & His Dixie Kings - Russian Album (1971) [FLAC 2.0|96/24|image+.cue|Vinyl-Rip] <Jazz, Dixielend>

 Статистика раздачи 
Размер: 800.04 МБ   |  Зарегистрирован: 07 янв 2018, 15:18   |   .torrent скачан: 2 раз
Сидеров: 11  [ 0 байт/сек ]     Личеров: 0  [ 0 байт/сек ]  
  
Аватара пользователя
 
Раздал: 1.85 ТБ
Скачал: 4.79 ГБ
Ратио: 394.646
Сообщения: 136098
Стаж: 1 год 2 месяца 5 дней

Kenichi Sonoda & His Dixie Kings - Russian Album (1971)

Автор рипа: Sergey VP
Жанр: Jazz, Dixielend
Продолжительность: 00:4152:
Издатель (лейбл): King Records
Страна: Japan
Номера по каталогу: SKK 688
Кодек: FLAC (image + .cue)
Формат записи: 24/96
Формат раздачи: 24/96
Реальные значения DR: DR15
Источник: Vinyl, LP, Album
Треклист:
01. Очи чёрные
02. Вот мчится тройка удалая
03. Огонёк
04. Вечерняя песня
05. Из-за острова на стрежень
06. Футбольная песенка
07. Уральская рябинушка
08. Подмосковные вечера
09. Наш сосед
10. Катюша
11. По диким степям Забайкалья
12. Под звёздами балканскими
13. Unknown Title
14. Дорогой длинною
Устройство воспроизведения: проигрыватель самодельный на базе фономотора от Dual-701
Головка звукоснимателя: Shure V15 Type IV, вставка Jico SAS VN35E
Фонокоректор: фLuxman E-1
АЦП: E-MU 0404 USB
Программа-оцифровщик: ????
Код класса состояния винила: Ex
Обработка: без обработки

Код: Выделить всё
Общее
Полное имя                               : D:\torrent razdacha\NNMClub\[NNMClub] Kenichi Sonoda & His Dixie Kings - Russian Album (1971) flac\01. Sounds\01. Kenichi Sonoda & His Dixie Kings - Russian Album (1971).flac
Формат                                   : FLAC
Формат/Информация                        : Free Lossless Audio Codec
Размер файла                             : 796 Мбайт
Продолжительность                        : 41 м. 51 с.
Режим общего битрейта                    : Переменный
Общий поток                              : 2658 Кбит/сек

Аудио
Формат                                   : FLAC
Формат/Информация                        : Free Lossless Audio Codec
Продолжительность                        : 41 м. 51 с.
Вид битрейта                             : Переменный
Битрейт                                  : 2658 Кбит/сек
Каналы                                   : 2 канала
Расположение каналов                     : Front: L R
Частота                                  : 96,0 КГц
Битовая глубина                          : 24 бит
Размер потока                            : 796 Мбайт (100%)
Библиотека кодирования                   : libFLAC 1.2.1 (UTC 2007-09-17)
Код: Выделить всё
foobar2000 1.1.3 / Dynamic Range Meter 1.1.1
log date: 2018-01-06 22:37:45

--------------------------------------------------------------------------------
Analyzed: Kenichi Sonoda & His Dixie Kings / Russian Album
--------------------------------------------------------------------------------

DR         Peak         RMS     Duration Track
--------------------------------------------------------------------------------
DR15       0.00 dB   -18.50 dB      3:22 ?-01. Очи Чёрные
DR14       0.00 dB   -18.57 dB      3:16 ?-02. Вот мчится тройка удалая
DR15      -1.34 dB   -19.46 dB      2:49 ?-03. Огонёк
DR15      -0.52 dB   -18.45 dB      2:53 ?-04. Вечерняя песня
DR14      -0.55 dB   -18.37 dB      2:33 ?-05. Из-за острова на стрежень
DR14      -0.66 dB   -18.23 dB      3:14 ?-06. Футбольная песенка
DR15       0.00 dB   -22.30 dB      3:18 ?-07. Уральская рябинушка
DR15       0.00 dB   -18.36 dB      3:03 ?-08. Подмосковные вечера
DR14       0.00 dB   -17.09 dB      2:56 ?-09. Наш сосед
DR15       0.00 dB   -18.81 dB      3:13 ?-10. Катюша
DR15       0.00 dB   -17.58 dB      3:06 ?-11. По диким степям Забайкалья
DR15      -0.41 dB   -19.04 dB      2:42 ?-12. Под звёздами балканскими
DR14      -1.51 dB   -19.74 dB      2:19 ?-13. Unknown Title
DR15      -1.17 dB   -19.30 dB      3:08 ?-14. Дорогой длинною
--------------------------------------------------------------------------------

Number of tracks:  14
Official DR value: DR15

Samplerate:        96000 Hz
Channels:          2
Bits per sample:   24
Bitrate:           2744 kbps
Codec:             FLAC
================================================================================
Код: Выделить всё
REM GENRE "Jaz"
REM DATE "1971"
REM COMMENT "Vinyl, Album, King Record - SKK 688, Japan"
TITLE "Russian Album (1971)"
PERFORMER "Kenichi Sonoda & His Dixie Kings"
FILE "01. Kenichi Sonoda & His Dixie Kings - Russian Album (1971).flac" WAVE
  TRACK 01 AUDIO
    TITLE "01. Очи чёрные"
    INDEX 01 00:00:00
  TRACK 02 AUDIO
    TITLE "02. Вот мчится тройка удалая"
    INDEX 01 03:22:59
  TRACK 03 AUDIO
    TITLE "03. Огонёк"
    INDEX 01 06:39:03
  TRACK 04 AUDIO
    TITLE "04. Вечерняя песня"
    INDEX 01 09:28:16
  TRACK 05 AUDIO
    TITLE "05. Из-за острова на стрежень"
    INDEX 01 12:21:72
  TRACK 06 AUDIO
    TITLE "06. Unknown Title"
    INDEX 01 14:54:66
  TRACK 07 AUDIO
    TITLE "07. Уральская рябинушка"
    INDEX 01 18:09:01
  TRACK 08 AUDIO
    TITLE "08. Подмосковные вечера"
    INDEX 01 21:26:30
  TRACK 09 AUDIO
    TITLE "09. Наш сосед"
    INDEX 01 24:29:66
  TRACK 10 AUDIO
    TITLE "10. Катюша"
    INDEX 01 27:25:48
  TRACK 11 AUDIO
    TITLE "11. По диким степям Забайкалья"
    INDEX 01 30:38:74
  TRACK 12 AUDIO
    TITLE "12. Под звёздами балканскими"
    INDEX 01 33:44:17
  TRACK 13 AUDIO
    TITLE "13. Unknown Title"
    INDEX 01 36:26:05
  TRACK 14 AUDIO
    TITLE "14. Дорогой длинною"
    INDEX 01 38:44:62



Время раздачи:
по выходным дням (до появления первых 3-5 скачавших)
   
Торрент: Зарегистрирован [07 янв 2018, 15:18] Vinyl-Rip и Hand-Made Скачать торрент Магнет ссылка
Скачать торрент
[ Размер 17.32 КБ / Просмотров 23 ]
Статус:
Проверен
 
.torrent скачан: 2 раз
Размер: 800.04 МБ (838 899 039 байт)
   Стать Автором раздачи
 
 
Цитата
  • Похожие торренты
    Ответы
    Просмотры
    Последнее сообщение

Вернуться в Vinyl-Rip и Hand-Made

Кто сейчас на конференции

Сейчас эту тему просматривают: нет зарегистрированных пользователей и гости: 1