Steingrab - Mystik (2017) [FLAC|Lossless|image + .cue] <Atmospheric Black Metal>

 Статистика раздачи 
Размер: 321.85 МБ   |  Зарегистрирован: 07 янв 2018, 16:15   |   .torrent скачан: 3 раз
Сидеров: 3  [ 0 байт/сек ]     Личеров: 0  [ 0 байт/сек ]  
  
Аватара пользователя
Автор темы
Раздал: 1.21 ТБ
Скачал: 3.51 ГБ
Ратио: 351.670
Сообщения: 13388
Стаж: 9 месяцев 30 дней

Steingrab - Mystik (2017)

Жанр: Atmospheric Black Metal
Издание: SoundAge Productions - SAPCD 358D
Источник: HaRD
Продолжительность: 00: 42:08

Кодек: FLAC
Битрейт: Lossless
Тип рипа: image + .cue

Треклист:
1. Licht
2. Der Spiegel
3. Styx
4. Zeugen der Macht
5. Scheintot
6. Mystik
7. Der letzte Schein des Mondes
Код: Выделить всё
Exact Audio Copy V1.1 from 23. June 2015

EAC extraction logfile from 31. December 2017, 21:48

Steingrab / Mystik (SAPCD358D)

Used drive  : TSSTcorpDVDWBD SH-B123L   Adapter: 0  ID: 4

Read mode               : Secure
Utilize accurate stream : Yes
Defeat audio cache      : Yes
Make use of C2 pointers : No

Read offset correction                      : 6
Overread into Lead-In and Lead-Out          : No
Fill up missing offset samples with silence : Yes
Delete leading and trailing silent blocks   : No
Null samples used in CRC calculations       : Yes
Used interface                              : Installed external ASPI interface

Used output format              : User Defined Encoder
Selected bitrate                : 768 kBit/s
Quality                         : High
Add ID3 tag                     : No
Command line compressor         : C:\Program Files (x86)\Exact Audio Copy\FLAC\FLAC.EXE
Additional command line options : -6 -V -T "ARTIST=%artist%" -T "TITLE=%title%" -T "ALBUM=%albumtitle%" -T "DATE=%year%" -T "TRACKNUMBER=%tracknr%" -T "GENRE=%genre%" -T "COMMENT=%comment%" -T "BAND=%albuminterpret%" -T "ALBUMARTIST=%albuminterpret%" -T "COMPOSER=%composer%" %haslyrics%--tag-from-file=LYRICS="%lyricsfile%"%haslyrics% -T "DISCNUMBER=%cdnumber%" -T "TOTALDISCS=%totalcds%" -T "TOTALTRACKS=%numtracks%" %hascover%--picture="%coverfile%"%hascover% %source% -o %dest%

TOC of the extracted CD

     Track |   Start  |  Length  | Start sector | End sector
    ---------------------------------------------------------
        1  |  0:00.00 |  6:07.37 |         0    |    27561
        2  |  6:07.37 |  8:18.28 |     27562    |    64939
        3  | 14:25.65 |  6:13.22 |     64940    |    92936
        4  | 20:39.12 |  5:11.71 |     92937    |   116332
        5  | 25:51.08 |  4:38.01 |    116333    |   137183
        6  | 30:29.09 |  4:39.70 |    137184    |   158178
        7  | 35:09.04 |  6:59.28 |    158179    |   189631

Range status and errors

Selected range

     Filename E:\MUSIC\Steingrab - Mystik (SAPCD358D).wav

     Peak level 97.7 %
     Extraction speed 3.4 X
     Range quality 100.0 %
     Test CRC BEC9FE92
     Copy CRC BEC9FE92
     Copy OK

No errors occurred

AccurateRip summary

Track  1  not present in database
Track  2  not present in database
Track  3  not present in database
Track  4  not present in database
Track  5  not present in database
Track  6  not present in database
Track  7  not present in database

None of the tracks are present in the AccurateRip database

End of status report

==== Log checksum FF8B5456EBCCDD2F3B8A8718FFCB2332BC28D6527B449761C5C8DBC219EC8143 ====
Код: Выделить всё
REM GENRE "Black Metal"
REM DATE 2017
REM DISCID 5109E007
REM COMMENT "ExactAudioCopy v1.1"
PERFORMER "Steingrab"
TITLE "Mystik (SAPCD358D)"
FILE "Steingrab - Mystik (SAPCD358D).flac" WAVE
  TRACK 01 AUDIO
    TITLE "Licht"
    PERFORMER "Steingrab"
    INDEX 01 00:00:00
  TRACK 02 AUDIO
    TITLE "Der Spiegel"
    PERFORMER "Steingrab"
    INDEX 01 06:07:37
  TRACK 03 AUDIO
    TITLE "Styx"
    PERFORMER "Steingrab"
    INDEX 01 14:25:65
  TRACK 04 AUDIO
    TITLE "Zeugen Der Macht"
    PERFORMER "Steingrab"
    INDEX 01 20:39:12
  TRACK 05 AUDIO
    TITLE "Scheintot"
    PERFORMER "Steingrab"
    INDEX 01 25:51:08
  TRACK 06 AUDIO
    TITLE "Mystik"
    PERFORMER "Steingrab"
    INDEX 01 30:29:09
  TRACK 07 AUDIO
    TITLE "Der Letzte Schein Des Mondes"
    PERFORMER "Steingrab"
    INDEX 01 35:09:04
Код: Выделить всё
-----------------------

DON'T MODIFY THIS FILE

-----------------------

PERFORMER: auCDtect Task Manager, ver. 1.6.0 RC1 build 1.6.0.1
Copyright (c) 2008-2010 y-soft. All rights reserved
[url=http://y-soft.org]http://y-soft.org[/url]

ANALYZER: auCDtect: CD records authenticity detector, version 0.8.2
Copyright (c) 2004 Oleg Berngardt. All rights reserved.
Copyright (c) 2004 Alexander Djourik. All rights reserved.

FILE: Steingrab - Mystik (SAPCD358D).flac
  Size: 332481075 Hash: 198634077FFD155047811650F9F60C31 Accuracy: -m0
  Conclusion: CDDA 100%
  Signature: 94827EA3C22AE5852D56F0BF2598C8FEE6EF9CC4

#7
Код: Выделить всё
[b]Поглощение/вытеснение [/b]
[b]Только с согласия релизера[/b]
[b][u][i]Чех[/b][/i][/u]

   
Торрент: Зарегистрирован [07 янв 2018, 16:15] Metal Скачать торрент Магнет ссылка
Скачать торрент
[ Размер 14.01 КБ / Просмотров 4 ]
Статус:
Проверен
 
.torrent скачан: 3 раз
Размер: 321.85 МБ (337 480 690 байт)
   
 
 
Цитата
  • Похожие торренты
    Ответы
    Просмотры
    Последнее сообщение

Вернуться в Metal

Кто сейчас на конференции

Сейчас эту тему просматривают: нет зарегистрированных пользователей и гости: 1